<?xml version="1.0" standalone="no"?>
<!DOCTYPE svg PUBLIC "-//W3C//DTD SVG 1.1//EN" "http://www.w3.org/Graphics/SVG/1.1/DTD/svg11.dtd" >
<svg xmlns="http://www.w3.org/2000/svg" xmlns:xlink="http://www.w3.org/1999/xlink" version="1.1">
<metadata>
Created by FontForge 20170731 at Tue Apr  6 17:42:25 2021
 By Aleksey,,,
copyright missing
</metadata>
<defs>
<font id="OldGrowth-Regular" horiz-adv-x="2129" >
  <font-face 
    font-family="Old Growth"
    font-weight="400"
    font-stretch="normal"
    units-per-em="2048"
    panose-1="0 0 5 0 0 0 0 0 0 0"
    ascent="1638"
    descent="-410"
    x-height="1872"
    cap-height="1884"
    bbox="-604.621 -618.286 4389.59 2695.95"
    underline-thickness="102"
    underline-position="-358"
    unicode-range="U+0020-2248"
  />
<missing-glyph horiz-adv-x="1024" 
d="M0 1434h1024v-1434h-1024v1434zM860 1331h-696l348 -522zM922 195v1044l-349 -522zM860 102l-348 523l-348 -523h696zM102 195l349 522l-349 522v-1044z" />
    <glyph glyph-name=".notdef" horiz-adv-x="1024" 
d="M0 1434h1024v-1434h-1024v1434zM860 1331h-696l348 -522zM922 195v1044l-349 -522zM860 102l-348 523l-348 -523h696zM102 195l349 522l-349 522v-1044z" />
    <glyph glyph-name=".null" horiz-adv-x="0" 
 />
    <glyph glyph-name="nonmarkingreturn" horiz-adv-x="682" 
 />
    <glyph glyph-name="space" unicode=" " horiz-adv-x="1126" 
 />
    <glyph glyph-name="space" unicode="&#xa0;" horiz-adv-x="1126" 
 />
    <glyph glyph-name="exclam" unicode="!" horiz-adv-x="610" 
d="M305 428q-74 0 -123 49q-49 46 -49 123v143q0 35 -1 70.5t-1 71.5t-2 71.5t-2 71.5q0 35 -1 70t-1 71t1 72t1 72q0 35 6 70t6 71t-8 71.5t-8 71.5q0 35 7 70.5t7 71.5q0 80 45 125q47 47 123 47q77 0 123 -49q57 -57 57 -123q0 -36 -3 -71.5t-3 -70.5q0 -36 -1 -71.5
t-1 -71.5t3 -71t3 -70q0 -36 2 -72t2 -72t-9 -71t-9 -70q0 -36 7 -71.5t7 -71.5t1 -71.5t1 -70.5q0 -36 -1 -71.5t-1 -71.5q0 -69 -53 -125q-47 -47 -125 -47zM305 317q57 0 98 -28q62 -44 72 -119q10 -76 -39 -133q-51 -64 -131 -64q-69 0 -123 54q-43 43 -49 100
q-6 62 23 111q49 79 149 79z" />
    <glyph glyph-name="quotedbl" unicode="&#x22;" horiz-adv-x="1292" 
d="M991 1264q11 16 19 51q9 34 20.5 66.5t20.5 66.5q9 33 19.5 65.5t19.5 65.5q9 34 17 67.5t17 67.5q9 31 19.5 64.5t19.5 68.5q18 69 -18 131q-32 59 -105 82q-66 22 -127 -8q-59 -27 -79 -98q-9 -34 -20.5 -66.5t-20.5 -66.5t-16.5 -68t-16.5 -67l-37 -134
q-9 -31 -19.5 -64.5t-19.5 -68.5q-17 -62 21 -127q34 -64 100 -84q54 -17 105.5 -1.5t80.5 57.5zM436 1264q8 12 17 51q10 33 21.5 65.5t21.5 65.5q9 35 19.5 68.5t19.5 64.5q9 34 17 67.5t17 67.5l37 133q20 71 -16 131q-36 59 -105 80q-67 21 -129 -8q-61 -28 -80 -98
q-9 -33 -20 -65.5t-20 -65.5q-9 -34 -16.5 -67.5t-16.5 -67.5l-37 -134q-9 -34 -18.5 -66.5t-18.5 -66.5q-18 -66 18 -127q38 -64 101 -84q54 -17 105.5 -1.5t82.5 57.5z" />
    <glyph glyph-name="numbersign" unicode="#" horiz-adv-x="1591" 
d="M1323 850q49 -3 86 -33q59 -49 59 -121q0 -56 -43 -106q-45 -49 -102 -49q-19 0 -39 3t-39 3q-17 0 -26 -12.5t-9 -30.5q0 -26 -1 -52t-1 -51q0 -53 -45 -102q-49 -53 -98 -53l-2 4q-60 0 -102 45q-35 38 -35 104v119q0 10 -9.5 16.5t-19.5 6.5q-55 0 -108.5 4t-106.5 4
q-12 0 -22.5 -11.5t-10.5 -23.5v-115q0 -4 2.5 -15t1.5 -17q-11 -53 -65 -88q-43 -34 -103 -21q-50 11 -81 49t-31 90q0 12 -4 36.5t-4 37.5q0 3 0.5 14.5t0.5 18t-2.5 15t-7.5 13.5q-4 4 -10 5.5t-10 1.5t-12.5 -2t-10.5 -2q-21 0 -53 4q-57 6 -94 49q-35 38 -39.5 90.5
t20.5 97.5q33 64 101 64q24 0 49 -1t49 -1q9 0 16 8t7 16q0 30 -1 61.5t-1 63.5q0 30 2 61.5t2 63.5q0 4 -13 4h-25h-26.5t-23.5 1t-25.5 2.5t-22 5t-23.5 8.5t-20.5 12.5t-21.5 17.5q-39 38 -45.5 90t20.5 99q42 71 101 71q9 0 26 -2t25 -2q2 0 11.5 -0.5t15 0t13.5 1.5
t12.5 4t6.5 8q6 9 6 18q-7 76 11 127q17 47 58 72.5t91 19.5q54 -8 90.5 -47.5t36.5 -95.5q-4 -29 -4 -58q0 -20 15.5 -34.5t35.5 -14.5q51 0 102 -2t101 -2q7 0 15 8.5t8 16.5q0 22 -3.5 43t-3.5 43q0 44 23 81t59 56q35 19 77 13t75 -36q51 -42 51 -112q2 -45 2 -88
q0 -8 5.5 -15.5t11.5 -7.5q13 0 46.5 2.5t57.5 1t45 -9.5q42 -15 69 -53.5t27 -85.5q0 -57 -43 -103q-44 -51 -100 -51q-23 0 -47 2t-47 2q-10 0 -18.5 -7t-8.5 -17q0 -28 1 -56t1 -55t3 -55t3 -55q0 -12 7.5 -22.5t17.5 -10.5q12 0 42.5 3.5t47.5 2.5zM655 889
q0 -19 11 -33t28 -14q34 1 76.5 3.5t87.5 2.5q27 0 44.5 16.5t17.5 42.5q0 28 1.5 63t0.5 72q0 32 -23.5 56t-54.5 24q-28 0 -57 -3t-58 -3q-33 0 -56.5 -23.5t-23.5 -56.5q0 -37 3 -73.5t3 -73.5z" />
    <glyph glyph-name="dollar" unicode="$" horiz-adv-x="1679" 
d="M1489 991q24 -46 45 -119q22 -90 22 -127q0 -49 -22 -124q-21 -85 -43 -121q-33 -62 -72 -103q-21 -24 -96 -82q-17 -12 -36.5 -22t-48 -21.5t-40.5 -17.5q-12 -5 -55.5 -28t-69.5 -31q-34 -9 -48 -36.5t-21 -69.5t-17 -60q-24 -46 -62.5 -72t-84.5 -25q-76 0 -127 48
q-51 51 -54 124q11 21 11 39q0 15 -10.5 25.5t-26.5 13.5q-22 4 -58.5 21t-50.5 22q-59 24 -102 47q-86 42 -117 66q-66 51 -96 90q-48 57 -72 113q-28 61 -4 135q22 63 92 96q66 28 133 6q63 -25 93 -92q18 -36 53 -70t71 -47q33 -11 57.5 3t24.5 51v159q0 40 5.5 80.5
t5.5 81.5q-3 43 -60 55q-26 7 -69.5 30.5t-53.5 27.5q-72 32 -116 63q-11 8 -31.5 22t-36 25.5t-27.5 24.5t-22 29.5t-21 38t-18 32.5q-26 46 -43 111q-23 75 -23 119q0 41 23 116q18 68 43 113q3 6 10.5 19.5t11.5 21.5t11 19t14.5 20.5t15.5 17.5q34 40 89 78
q16 11 34.5 20.5t46.5 21.5t37 16q104 46 123 51q53 13 53 49q0 9 -6 18.5t-6 18.5q0 72 51 123q51 54 125 57q52 0 117 -61q61 -57 61 -117q0 -12 2.5 -23t2.5 -22q0 -46 24 -51q6 -1 33 -7.5t36 -8.5t31 -8t34 -10.5t28.5 -11.5t30.5 -14t28.5 -17t23.5 -17.5t26 -22
t24 -19.5q65 -53 90 -86q55 -63 72 -104q30 -66 2 -137q-10 -31 -36 -57t-58 -40q-41 -18 -72 -18q-50 0 -95 30t-67 79q-8 14 -29.5 38t-46.5 41q-17 12 -29.5 18t-23.5 7.5t-16.5 -7.5t-5.5 -28q-11 -64 -11 -125q1 -23 3 -57t2 -70q0 -30 18 -56.5t45 -33.5
q107 -33 131 -45q72 -33 121 -72q6 -4 25 -17.5t27 -19.5t21 -17t23 -21q25 -28 74 -103zM494 1522q0 -67 75 -121q18 -12 39 -21q15 -9 36.5 2t21.5 29q-1 49 -4 105t-3 116q-1 17 -19.5 28t-33.5 3q-7 -3 -18.5 -14.5t-16.5 -14.5q-77 -53 -77 -112zM1116 600
q33 24 58.5 61.5t25.5 83.5q0 48 -25 87.5t-57 62.5q-5 4 -37 20q-24 14 -52.5 -1t-27.5 -42q0 -31 2.5 -63.5t2.5 -65.5q1 -31 1 -63t1 -64q0 -26 23.5 -38t45.5 0q5 3 13.5 7t15 7.5t10.5 7.5z" />
    <glyph glyph-name="percent" unicode="%" horiz-adv-x="1677" 
d="M305 31q46 0 90.5 21.5t71.5 60.5q24 34 43.5 70.5t42.5 70.5q25 34 50 66.5t50 66.5q25 36 52.5 68.5t50.5 64.5q36 56 92 137q26 36 46 74.5t40 69.5q25 36 55.5 66t54.5 63q81 122 93 139q24 34 44.5 70.5t43.5 70.5q24 34 49.5 66.5t50.5 66.5q45 70 94 138
q26 38 52.5 72.5t46.5 62.5q46 61 30 129q-14 57 -88 98q-75 45 -133 33q-64 -11 -115 -80l-94 -139q-22 -32 -48.5 -63t-49.5 -66q-25 -35 -53 -67.5t-52 -67.5q-18 -28 -42 -64.5t-50 -75.5l-98 -133q-66 -92 -96 -135q-25 -35 -45.5 -71.5t-44.5 -71.5q-23 -34 -46 -68.5
t-47 -68.5q-25 -36 -53.5 -67.5t-52.5 -64.5q-39 -61 -94 -137q-20 -28 -47 -61.5t-52 -71.5q-39 -51 -16 -133q16 -64 76 -104l19 -9.5t21 -10l18 -7.5t21.5 -6.5t18.5 -1.5zM395 1366q14 0 27.5 3t29 10.5t23 11.5t26 16t21.5 14q73 32 105 82q41 61 41 125q0 66 -41 127
q-34 49 -105 80q-70 41 -127 41q-102 0 -137 -16q-71 -38 -108 -93q-25 -39 -25 -139q0 -93 27 -133q26 -41 110 -88q2 -1 20 -9t23 -10t20.5 -8t24 -8t21.5 -4t24 -2zM395 1669q60 0 60 -41t-60 -41q-55 0 -55 41t55 41zM1276 43q82 0 133 25q27 13 46.5 35.5t43.5 60.5
q42 61 50 90q5 17 5 33q0 10 -1.5 19.5t-5 20t-6 17.5t-9.5 18.5t-9.5 16t-11 17.5t-10.5 16q-37 58 -94 90q-75 33 -131 33q-78 0 -131 -31q-90 -38 -117 -78q-37 -58 -37 -139q0 -22 9.5 -47t18 -40t25.5 -42q30 -43 103 -78q66 -37 129 -37zM1276 350q21 0 33 -19t12 -44
q0 -22 -12 -39t-33 -17q-25 0 -46.5 18t-21.5 38q0 23 21.5 43t46.5 20z" />
    <glyph glyph-name="ampersand" unicode="&#x26;" horiz-adv-x="1800" 
d="M1540 406q24 -26 49.5 -46t44.5 -38q45 -47 41 -129q0 -79 -49 -125q-53 -50 -123 -50q-62 0 -123 64q-16 18 -34 33t-35 32q-21 21 -48.5 26t-52.5 -9q-94 -63 -153 -88q-58 -21 -172 -37q-69 -12 -137 -12q-132 0 -218 22q-75 17 -147 57q-98 50 -133 87
q-50 47 -90 133q-30 74 -35 125q-3 8 -1.5 31.5t2 31.5t4.5 32.5t5 33.5q6 64 29 125q21 69 57 126q48 86 76 119q10 13 94 107q18 19 20.5 44.5t-12.5 47.5q-51 81 -65 111q-23 48 -45 122q-29 87 -35 158q-11 100 4 160q13 59 76 141q4 5 19 24t21.5 27t19.5 21.5t25.5 23
t26.5 17.5q50 28 152 47q98 17 174 6q68 -12 160 -70q84 -53 117 -94q48 -56 77 -133q17 -45 21 -164q8 -111 -14 -162q-7 -17 -18.5 -34.5t-19.5 -28.5t-25 -31t-23 -28q-19 -22 -54.5 -60t-46.5 -51q-22 -23 -22 -57.5t20 -57.5q25 -26 55.5 -55.5t61.5 -62.5
q24 -25 55 -55t62 -64q29 -31 74.5 -24t62.5 46q5 14 12 44t12 44q18 61 86 101q65 34 131 14q68 -21 101 -86q34 -58 12 -133q-28 -91 -57 -154q-18 -41 -82 -145q-13 -23 -10.5 -52.5t20.5 -47.5zM590 1571q9 -91 55 -127q29 -25 60 -19q30 4 67 45q20 23 29 48
q10 33 -5.5 72.5t-45.5 56.5q-31 15 -68 13.5t-66.5 -26.5t-25.5 -63zM836 373q14 2 28.5 6.5t33 11.5t28.5 10q39 15 50.5 59t-15.5 75q-28 29 -59.5 56.5t-61.5 59.5q-30 31 -58 64t-57 63q-24 24 -58.5 22.5t-58.5 -26.5q-5 -6 -23.5 -26t-26.5 -28.5t-21 -25.5
t-21.5 -32t-15.5 -31q-45 -105 -19 -162q24 -49 101 -72q77 -24 125 -26q75 -7 129 2z" />
    <glyph glyph-name="quotesingle" unicode="'" horiz-adv-x="753" 
d="M432 1280q7 7 21 49q10 33 22.5 65.5t22.5 65.5t22.5 65.5t22.5 65.5t19.5 66.5t19.5 66.5q18 58 43 131q20 73 -15 132q-32 62 -100 86q-61 23 -129 -5q-60 -25 -82 -96q-10 -33 -23.5 -64.5t-23.5 -64.5q-9 -32 -18 -65.5t-19 -67.5l-41 -133q-10 -33 -21.5 -65.5
t-21.5 -65.5q-20 -63 14 -129q34 -63 99 -86q54 -20 105.5 -6.5t82.5 55.5z" />
    <glyph glyph-name="parenleft" unicode="(" horiz-adv-x="866" 
d="M532 -20q38 0 89 28q71 40 86 103q15 55 -31 131q-17 27 -38 82t-28 69q-16 36 -57 156q-5 16 -21 58.5t-20 66.5q-13 54 -23 129q-15 107 -16 131t1.5 68.5t2.5 62.5q2 30 11.5 84t11.5 72q13 88 32 155q10 47 46 152q6 17 23 71t30 80q12 23 27 46t33.5 48t27.5 39
q37 60 20 136q-13 69 -75 110q-63 41 -136 25q-53 -10 -102 -84q-18 -27 -70 -121q-5 -10 -29 -53.5t-36 -69.5q-38 -85 -53 -129q-14 -39 -39 -135q-4 -14 -21 -60t-22 -73q-4 -25 -7.5 -73t-5.5 -68q-2 -14 -6.5 -42.5t-7.5 -51.5t-4 -44q-4 -109 -2 -164q1 -27 16 -159
q5 -30 17 -85.5t16 -74.5q30 -127 39 -156q8 -26 28 -72.5t23 -54.5q7 -19 17 -39.5t23 -45t20 -38.5q5 -10 23.5 -54.5t33.5 -67.5q23 -40 65.5 -64t87.5 -24z" />
    <glyph glyph-name="parenright" unicode=")" horiz-adv-x="868" 
d="M336 -20q45 0 87 23.5t66 64.5q13 23 33.5 68t24.5 54q6 14 27 56t30 67q46 105 53 127q7 23 13.5 49t13 58.5t10.5 48.5q27 117 33 160q13 88 16 159q4 55 0 164q-1 28 -10 78.5t-10 59.5q-1 16 -2.5 45.5t-3.5 52.5t-6 43q-5 27 -21.5 74t-19.5 59q-18 71 -39 135
q-3 8 -56 129q-11 27 -36 71.5t-29 51.5q-63 113 -68 121q-49 74 -104 84q-73 17 -133 -25q-62 -41 -78 -110q-17 -76 23 -136q9 -14 41 -59t47 -74q9 -20 17.5 -44.5t18 -56.5t15.5 -50q25 -65 47 -152q21 -85 31 -155q21 -128 22 -156q1 -15 3 -42t3 -48.5t0 -40.5
q-1 -20 -4 -42t-7.5 -48.5t-6.5 -40.5q-13 -97 -21 -129q-6 -25 -22.5 -69t-20.5 -56q-31 -103 -55 -156q-8 -17 -29 -70.5t-36 -80.5q-46 -75 -33 -131q18 -64 88 -103q47 -28 88 -28z" />
    <glyph glyph-name="asterisk" unicode="*" horiz-adv-x="1030" 
d="M852 1450q39 -30 47 -77.5t-22 -86.5q-28 -35 -72.5 -41.5t-79.5 21.5l-74 53q-6 5 -13 1t-7 -13q1 -25 -2.5 -49t-3.5 -46q0 -46 -28.5 -80.5t-70.5 -35.5q-47 -3 -83.5 33t-36.5 85q0 25 2 51.5t2 53.5q0 8 -8.5 13t-14.5 1q-19 -15 -38 -33t-42 -34q-37 -27 -80 -19.5
t-71 43.5q-30 38 -23.5 87.5t45.5 76.5q116 85 125 92q13 13 0 23q-34 24 -66.5 49.5t-66.5 50.5q-36 27 -45.5 73t14.5 85q26 39 74 45.5t86 -23.5q21 -15 33 -24t26.5 -20.5t32.5 -24.5q3 -3 12 2t9 10q-2 57 -2 115q0 46 29.5 78.5t72.5 35.5q47 1 80 -32.5t33 -83.5
q0 -27 5 -55.5t5 -57.5q0 -5 1.5 -8t4.5 -2q24 17 94 67q37 27 78.5 22t67.5 -40q31 -38 25 -87t-46 -77q-34 -25 -68.5 -48t-68.5 -48q-6 -5 -7 -14.5t5 -14.5q26 -18 61 -42t70 -50z" />
    <glyph glyph-name="plus" unicode="+" horiz-adv-x="1394" 
d="M1120 1163q54 0 103 -49q46 -46 49 -102q0 -63 -43 -109q-39 -39 -107 -39q-30 0 -61 2t-62 2t-61 -2t-61 -2q-15 0 -24 -11t-9 -26q0 -31 -4 -61t-4 -61q0 -32 3 -63.5t3 -61.5q0 -62 -43 -105q-38 -41 -107 -41q-68 0 -106 41q-43 43 -43 107q0 5 3 13.5t3 12.5v137
q0 99 -2 119q-47 0 -141 -4q-24 0 -70 3t-70 3q-59 0 -102 43q-41 41 -41 103q0 66 41 104q45 45 104 45q30 0 60 -3t59 -3t59 4t60 4q18 0 29.5 10t11.5 27q0 31 -1 61.5t-1 59.5q0 31 1 61.5t1 59.5q0 61 43 104q39 39 104 39q68 0 107 -39q37 -40 37 -106q0 -30 -1 -59.5
t-1 -57.5q0 -30 3 -59.5t3 -57.5q0 -20 13 -32.5t32 -12.5q30 0 59.5 1t57.5 1h116z" />
    <glyph glyph-name="comma" unicode="," horiz-adv-x="626" 
d="M299 -268q39 0 69 36.5t46 86.5l80 247q25 74 -7.5 122t-99.5 67q-43 10 -79 9t-65.5 -30t-45.5 -88l-70 -258q-13 -50 19 -112t90 -76q15 -4 63 -4z" />
    <glyph glyph-name="hyphen" unicode="-" horiz-adv-x="1654" 
d="M1362 827q67 0 123 56q47 47 47 125q0 83 -45 125q-50 53 -125 53q-38 0 -76.5 -1t-77.5 -1q-38 0 -75.5 -4t-75.5 -4t-76.5 4t-77.5 4q-38 0 -75.5 1t-75.5 1t-76 -3t-76 -3q-39 0 -77.5 3t-76.5 3t-75.5 -1t-75.5 -1q-78 0 -127 -49q-45 -48 -45 -127t45 -127
q46 -43 127 -43q38 0 75.5 -5.5t75.5 -5.5t76.5 2t77.5 2q38 0 76 -1t76 -1h153h152q38 0 75.5 2.5t75.5 2.5q39 0 77.5 -3.5t76.5 -3.5z" />
    <glyph glyph-name="period" unicode="." horiz-adv-x="587" 
d="M293 27q94 9 133 51.5t39 118.5q0 72 -50 123t-122 51q-70 -6 -117 -54t-53 -120q-6 -70 46 -120t124 -50z" />
    <glyph glyph-name="slash" unicode="/" horiz-adv-x="1353" 
d="M184 297q15 35 31.5 67.5t30.5 63.5q14 33 32 63.5t31 63.5t24 66.5t25 66.5q13 30 20 48t15.5 39t18.5 46l53 133q13 33 22 68t23 68q20 47 55 131q14 32 34 62.5t34 64.5q20 46 55 131q15 35 24.5 69.5t22.5 65.5q13 32 31.5 63t32.5 66q14 33 21 68t20 69
q14 33 29.5 64.5t29.5 64.5q29 74 92 98q66 26 135 -2q70 -28 95 -96q23 -58 -7 -129q-13 -34 -19.5 -69t-20.5 -68q-14 -36 -32.5 -67.5t-31.5 -61.5q-14 -33 -24.5 -66.5t-24.5 -66.5q-20 -46 -55 -131q-14 -35 -32.5 -66t-31.5 -63q-14 -33 -26 -67t-27 -67
q-13 -33 -27 -65.5t-28 -65.5t-21 -68.5t-20 -68.5l-54 -133q-13 -33 -28 -64.5t-29 -64.5q-16 -36 -27.5 -70t-23.5 -63q-33 -75 -56 -133q-13 -33 -29 -64.5t-30 -64.5q-35 -84 -55 -131q-20 -51 -64.5 -84t-95.5 -33q-13 0 -36 12.5t-29 14.5q-66 27 -93 90
q-33 84 -12 135z" />
    <glyph glyph-name="zero" unicode="0" horiz-adv-x="1810" 
d="M1505 1581q73 -88 88 -111q31 -49 64 -127q8 -19 14.5 -40t14.5 -53.5t10 -41.5q20 -76 28 -137q5 -39 5 -141q0 -86 -7 -139q-2 -12 -5 -43.5t-6.5 -54t-8.5 -42.5q-10 -41 -49 -133q-14 -34 -70 -121q-34 -55 -84 -112q-74 -86 -117 -119q-98 -76 -137 -96
q-78 -40 -162 -58q-55 -14 -172 -14q-123 0 -170 12q-25 5 -49.5 16t-59 29.5t-46.5 24.5q-13 7 -47.5 22t-58.5 27.5t-44 28.5q-19 16 -37 35.5t-41.5 49t-33.5 40.5q-50 57 -84 112q-28 43 -62 125q-32 76 -47 133q-14 53 -25 138q-2 16 -13 64t-11 75q0 21 3 44.5t8 52
t7 44.5q13 101 23 139q5 20 13 40.5t22.5 50.5t17.5 38q18 45 68 123q66 101 80 117q60 70 118 117q96 74 138 96q50 26 163 51q75 19 168 19q122 0 172 -11q19 -5 41.5 -13.5t37 -15t41.5 -20t38 -18.5q88 -45 141 -88q71 -54 123 -115zM1346 694q5 17 26 117q2 12 7 36.5
t7.5 44.5t2.5 38t-3.5 38t-8.5 44t-7 37q-3 13 -6.5 55.5t-11.5 64.5q-12 33 -33.5 68t-38.5 56.5t-47 56.5q-9 10 -25.5 31.5t-30 36t-28.5 24.5q-50 36 -113 55q-73 25 -125 25q-55 0 -123 -21q-69 -25 -114 -57q-15 -10 -28 -24.5t-30 -37.5t-24 -32q-79 -89 -115 -183
q-11 -29 -24 -118q0 -3 -9.5 -49t-9.5 -70q0 -82 6 -121q5 -34 35 -117q42 -108 111 -186q21 -26 96 -78q5 -3 17 -12t17.5 -13t16.5 -11t18.5 -11t17.5 -8.5t19 -7.5q79 -23 123 -23q15 0 32.5 3t28.5 6.5t31.5 10.5t28.5 9q9 3 29 9.5t32 11t28 12t28 16.5q37 26 90 86
q63 74 107 188z" />
    <glyph glyph-name="one" unicode="1" horiz-adv-x="983" 
d="M901 1737q2 -24 -4.5 -70.5t-5.5 -67.5v-77q0 -30 4 -92.5t4 -94.5q0 -22 -5 -88.5t-5 -120.5q0 -28 1 -82t1 -81t-1 -83t-1 -83q0 -25 5 -76t5 -76q0 -24 -5 -73.5t-5 -75.5q0 -24 2 -75t2 -75q0 -33 1 -98t1 -98q0 -68 -53 -121q-47 -47 -123 -47q-69 0 -117 51
q-59 59 -59 119q0 38 2 75.5t2 75.5t2 76t2 76t-5 75.5t-5 75.5t4 75.5t4 74.5q0 38 -5 75.5t-5 75.5t4 76t4 76t2 97t2 97t-5 77t-5 77q0 35 -24 53.5t-58 9.5q-41 -9 -83 -16t-83 -16q-24 -4 -39 -4q-63 0 -111 39q-43 37 -55 100q-17 81 14 131q37 58 113 74q18 4 55 10
t56 10t55.5 14.5t52.5 14.5q34 7 97.5 25.5t93.5 25.5q45 10 65 14t56 1.5t63 -17.5q50 -27 76 -100q2 -6 8.5 -19.5t7.5 -19.5z" />
    <glyph glyph-name="two" unicode="2" horiz-adv-x="1964" 
d="M1712 354q58 0 121 -59q46 -43 49 -117q3 -72 -45 -123q-50 -53 -123 -53q-4 0 -12.5 -1t-13.5 -1q-25 0 -74 2t-72 2q-24 0 -73 -2t-74 -2t-74 -2t-74 -2t-74 5t-73 5q-25 0 -78 -3t-80 -3q-18 0 -74 -1.5t-86 -0.5h-157q-27 0 -80 2t-78 2q-18 0 -74 1.5t-86 0.5
q-35 0 -54.5 1t-47.5 7.5t-49 20.5q-38 25 -57.5 67t-14.5 88q6 76 57 121q19 16 61.5 38.5t55.5 31.5q24 16 69.5 51t69.5 51q23 15 75.5 41.5t76.5 42.5q23 15 64 47t63 47l131 86q22 14 69.5 37.5t69.5 38.5q17 11 63 39.5t70 44.5q17 10 46 35t46 35q10 6 46 26t55 33
q52 30 108 76q24 18 36.5 29t27 31.5t18.5 41.5q3 19 -2 40t-11 34t-19.5 36.5t-16.5 29.5q-44 82 -115 127q-48 33 -116 47q-14 4 -31.5 7t-29.5 4t-33 2.5t-31 2.5q-4 2 -8 2q-16 2 -44 7t-50 8t-40 2q-22 -2 -45 -6.5t-49.5 -11.5t-36.5 -9q-78 -20 -127 -45
q-96 -46 -149 -88q-19 -16 -37 -36t-28 -33.5t-25.5 -36t-20.5 -29.5q-37 -49 -118 -60q-85 -16 -132 19q-48 35 -63 118q-11 80 25 132q24 32 86 98q32 34 98 86q64 55 102 80q29 19 115 61q64 29 139 51q7 2 59 21t83 24q14 4 72.5 2.5t76.5 -0.5q15 0 45 1.5t55.5 1.5
t49.5 -3q2 0 4 1.5t4 1.5q22 -2 69.5 -14t65.5 -15q62 -15 131 -45q78 -30 125 -60q3 -2 22.5 -14.5t34 -22.5t37 -29.5t41.5 -39.5q38 -40 96 -143q45 -82 60 -136q17 -55 20 -114q2 -47 -8 -115q-1 -4 -7 -34.5t-8.5 -41.5t-9.5 -32t-16 -37q-35 -68 -90 -123
q-46 -48 -127 -92q-33 -21 -64.5 -42.5t-52.5 -35.5t-40.5 -26.5t-35 -23t-41.5 -26.5q-28 -19 -60 -34.5t-60 -35.5q-32 -20 -60 -41t-55 -39q-29 -19 -61 -35t-60 -34q-23 -15 -13 -41.5t38 -26.5q37 0 73.5 -2t73.5 -2q38 0 75.5 -3t74.5 -3t74 -1t75 -1q37 0 74.5 3
t75.5 3q37 0 73.5 4t73.5 4z" />
    <glyph glyph-name="three" unicode="3" horiz-adv-x="1941" 
d="M1860 612q4 -74 -17 -147q-14 -64 -55 -135q-5 -8 -22 -38t-29.5 -48.5t-28.5 -34.5q-19 -20 -43 -38t-40.5 -28t-39.5 -22.5t-29 -16.5q-11 -7 -36.5 -24.5t-39.5 -26.5t-36.5 -20.5t-42.5 -18.5q-106 -36 -174 -45q-53 -8 -193 -8q-16 0 -50 -1t-50 -1q-23 0 -72.5 9.5
t-73.5 11.5q-13 1 -43 3t-54.5 4.5t-47.5 6.5q-88 20 -141 39q-82 31 -133 61q-30 19 -125 105q-85 73 -117 110q-47 60 -41 131q10 72 66 119q50 42 129 35q73 -7 116 -62q55 -67 156 -129q89 -52 121 -61q61 -16 133 -23q67 -6 135 -6q28 -1 148 4q83 3 145 19
q96 21 137 49q102 66 127 160q0 1 2 12t4 24t1 32t-7 36q-25 79 -153 146q-58 34 -136 57q-15 5 -43 14.5t-51.5 17t-44.5 11.5q-15 2 -63.5 3.5t-71.5 8.5q-61 18 -105 80q-50 67 -47 127q6 67 66 121l115 98q28 23 60 44t62 46q28 23 13.5 61t-51.5 38q-23 0 -69 2t-69 2
t-68 -4t-67 -4q-24 0 -69.5 1t-67.5 1q-33 0 -94.5 -5t-85.5 -6q-36 -1 -101 6.5t-79 8.5q-85 6 -138 45q-59 41 -59 125q0 93 68 141q15 11 30.5 18t37 9.5t31.5 3.5t40 0.5t35 -0.5q26 0 79.5 2t81.5 2q27 0 80 1t80 1q28 0 82 -4t80 -4t76 2t75 2q24 0 74 1t76 1
q24 0 74 1t75 1q26 0 76 -3t74 -3q22 0 72.5 3.5t74.5 4.5q11 0 45 1t57.5 0.5t43.5 -5.5q70 -16 112 -82q26 -39 33 -81.5t-10 -84.5q-8 -16 -18.5 -30t-26 -28.5t-25.5 -23t-31 -24.5t-28 -21q-27 -22 -74.5 -64.5t-58.5 -52.5q-17 -14 -50 -37.5t-50 -37.5l-95 -80
q-17 -14 -11.5 -32t24.5 -24q32 -13 122 -59q77 -42 136 -90q50 -40 104 -121q45 -59 72 -141q33 -92 35 -144z" />
    <glyph glyph-name="four" unicode="4" horiz-adv-x="2013" 
d="M1763 944q49 -3 84 -20q41 -22 62.5 -65t21.5 -93q0 -79 -43 -125q-52 -49 -125 -49q-23 0 -45 -1t-45 -1q-30 0 -50.5 -21.5t-20.5 -52.5q0 -43 -1.5 -86t-1.5 -86v-170q0 -49 -23.5 -91.5t-62.5 -66.5q-77 -42 -178 11q-40 21 -64 56t-24 77v125q0 31 2 62t2 61t-1 61
t-1 61q0 25 -17.5 45.5t-41.5 20.5q-33 0 -99 -1t-100 -1h-135q-22 0 -67 -2t-68 -2q-20 0 -42.5 -1t-50 -2.5t-42.5 -2.5q-22 0 -68 5t-69 5q-20 0 -66 -1t-70 -1q-98 0 -133 16q-37 19 -63.5 54.5t-32.5 74.5q-6 50 39 119q5 8 21 31.5t28 40t25 30.5l104 109
q35 37 107 109l102 110q19 20 57.5 55t53.5 50q17 19 55 52.5t55 51.5q17 19 50 57t50 56q26 27 78 77.5t76 75.5q4 5 17.5 19t18 18.5t17 16t19 16t19 12.5t22.5 11.5t23.5 7t27.5 4.5q27 3 55.5 3.5t67.5 -0.5t55 -1q14 -1 66.5 4t66.5 -2q71 -16 107 -82q26 -45 30 -135
q1 -19 5 -67.5t4 -72.5q0 -21 1 -64t1 -65t-6.5 -65t-6.5 -64t3.5 -64t3.5 -65v-129q0 -25 15 -41t40 -16q14 0 50.5 2.5t55.5 1.5zM748 1014q-22 -22 -11.5 -50t41.5 -28q33 0 65.5 -2t65.5 -2t65.5 1t65.5 1q31 0 63.5 -1t65.5 -1t55.5 26.5t22.5 61.5q0 30 2 60t2 67
q0 20 1 63.5t1 65.5q0 30 -4 74t-4 53l1 5q0 5 -0.5 8.5t-1.5 9.5t-4 10.5t-7.5 8.5t-12.5 6.5t-18 2.5h-2q-1 1 -3.5 1h-6.5t-8.5 -1t-10 -2.5t-12 -5t-14 -8.5t-16 -13t-17.5 -18q-20 -22 -41.5 -48t-46.5 -52q-27 -28 -50 -54.5t-40 -44.5q-26 -27 -51.5 -51t-44.5 -43
q-23 -25 -44.5 -50.5t-45.5 -49.5z" />
    <glyph glyph-name="five" unicode="5" horiz-adv-x="2007" 
d="M1845 901q35 -49 62 -139q18 -53 18 -148q0 -8 0.5 -29.5t0 -32.5t-1.5 -28.5t-3.5 -32t-7.5 -28.5q-3 -11 -9 -23.5t-10.5 -21t-13.5 -23t-13.5 -20.5t-16.5 -22.5t-15 -20.5q-7 -10 -19.5 -29.5t-21 -32t-21.5 -28t-26 -27.5q-39 -34 -121 -90q-17 -10 -36.5 -18.5
t-46.5 -18.5t-40 -16t-37 -18.5t-44.5 -22t-39.5 -15.5q-44 -13 -129 -28q-4 -1 -54 -12t-77 -13q-10 -3 -65.5 -0.5t-67.5 2.5q-92 0 -137 4q-84 7 -137 17q-62 13 -135 37q-74 24 -129 51q-95 46 -144 82q-43 32 -117 114q-48 54 -88 138q-34 73 -12 131q22 64 90 96
q66 34 131 8q52 -21 103 -90q54 -73 80 -96q13 -10 30 -20.5t40.5 -23.5t37.5 -22q74 -40 123 -53q50 -12 131 -23q10 -3 65.5 -0.5t67.5 2.5q71 0 139 9q96 12 136 24q53 18 127 58q73 44 108 84q53 62 53 126t-53 123q-41 47 -108 84q-49 25 -129 49q-96 28 -136 33
q-19 3 -40.5 3.5t-52 -0.5t-44.5 -1q-27 0 -83 5.5t-83 5.5t-84 -3.5t-84 -3.5t-83 3.5t-83 3.5q-11 0 -39 -0.5t-43.5 -0.5t-38 1.5t-40.5 5.5q-60 11 -99 63q-40 49 -34 111l6 135q1 23 -3 68t-3 67q2 33 10 99.5t10 99.5q2 35 10 110q1 5 2 18.5t2 19.5t2.5 17.5t4 18.5
t6 16.5t8.5 16.5q24 38 64 59t85 23q21 1 61.5 -3.5t57.5 -4.5q19 0 58.5 -1t60.5 -1q25 0 77 2t79 2q25 0 76 1t77 1q27 0 79 -2t77 -2q27 0 78.5 4t76.5 4t78 -3t78 -3t77 1t79 1h155q81 0 125 -47q45 -48 45 -127q0 -62 -55 -121q-56 -60 -119 -60q-59 2 -149 2h-150
q-24 0 -74.5 4.5t-76.5 4.5q-24 0 -75 -5.5t-75 -5.5q-27 0 -77 4.5t-74 4.5h-150q-48 0 -81.5 -4.5t-69.5 -4.5q-46 0 -79 -29.5t-36 -74.5v-23q-3 -47 29 -78.5t82 -31.5q41 0 81 -5t80 -5h164q32 0 133 -9q86 -8 131 -16q110 -20 129 -27q19 -5 39.5 -14.5t45 -22
t36.5 -18.5q15 -6 40.5 -15t46 -17.5t36.5 -18.5q54 -32 119 -90q63 -56 100 -113z" />
    <glyph glyph-name="six" unicode="6" horiz-adv-x="2050" 
d="M1864 901q66 -74 86 -123q20 -48 20 -143q6 -77 -16 -143q-25 -70 -70 -127q-6 -8 -19.5 -28.5t-21.5 -32t-21 -27t-26 -27.5q-20 -18 -65.5 -43t-57.5 -33q-104 -62 -143 -80q-29 -11 -88.5 -23.5t-71.5 -15.5q-13 -3 -69.5 -19t-88.5 -20q-88 -13 -163 -16
q-111 0 -164 4q-24 1 -51.5 6t-60 13.5t-50.5 11.5q-12 2 -50.5 6.5t-63 9t-46.5 12.5q-68 20 -151 64q-44 19 -121 80q-84 59 -111 90q-35 42 -71 131q-19 43 -23 141q0 10 -2 45.5t0 58.5t10 44q4 17 13 35t17 29.5t23 32t21 30.5q6 8 16 28t19 29q26 29 53.5 56t50.5 53
l103 118q28 31 53 63.5t43 53.5q28 31 52.5 62t45.5 55q27 32 55.5 60.5t49.5 52.5t47 53t53 61q26 29 47 62.5t45 60.5q23 27 52.5 53.5t54.5 57.5q55 58 112 61q63 6 123 -45q54 -45 60 -115q7 -77 -37 -129q-66 -81 -92 -110q-54 -61 -99 -113q-22 -27 -98 -112
q-9 -12 -6 -27t18 -21q25 -14 37 -14q15 1 54.5 3t54 2t53.5 -1q29 -1 85.5 -12.5t67.5 -13.5q89 -17 152 -41q90 -27 149 -56q93 -52 125 -75q33 -26 97 -103zM1499 467q58 33 87.5 76t27.5 80q-2 35 -34.5 72.5t-94.5 68.5q-98 53 -148 63q-54 16 -157 23q-110 12 -160 10
q-73 -3 -162 -16q-33 -5 -90.5 -24.5t-62.5 -20.5q-95 -36 -144 -68q-51 -26 -94 -69l1 -1q-2 1 -3 1q-9 -10 -13 -21.5t-4.5 -16.5t1.5 -20t2 -18q2 -40 28.5 -80.5t85.5 -69.5q49 -24 154 -47q12 -3 37 -9.5t41 -10.5t38.5 -8.5t41.5 -6.5q103 -8 159 -6q32 1 158 21
q99 18 156 39q106 32 149 59z" />
    <glyph glyph-name="seven" unicode="7" horiz-adv-x="1931" 
d="M1821 1608q-20 -32 -109 -140q-21 -24 -64.5 -68t-64.5 -67q-52 -64 -74 -90q-14 -16 -36.5 -48t-34.5 -46q-9 -12 -6 -25.5t18 -13.5h74q96 0 145 -78q52 -81 14 -168q-20 -43 -61 -67.5t-90 -24.5h-184h-183q-64 0 -104 -49q-23 -27 -47.5 -54t-48.5 -55l-95 -110
q-26 -29 -47 -59t-43 -56l-94 -110q-24 -28 -47.5 -55.5t-46.5 -55.5q-24 -28 -50 -54t-50 -53q-57 -63 -127 -63q-66 0 -113 41q-60 50 -66 117q-5 59 50 125q19 21 51 61.5t47 58.5q16 18 50 53t50 54l98 115q12 15 33.5 47.5t34.5 48.5q3 3 14 11t19.5 16t7.5 14
q0 4 -3 6t-8 2.5t-9.5 0.5t-10 -0.5t-6.5 -0.5q-37 1 -73 19.5t-58 46.5q-31 37 -35 87t17 93q19 46 56.5 72t86.5 26q36 0 71.5 -2t71.5 -2t72.5 5t73.5 5q61 0 94 39q109 129 113 135q18 20 112 133q29 34 11 73.5t-62 39.5q-23 0 -68 -4t-67 -4q-25 0 -77 3t-79 3
q-26 0 -77 -3t-76 -3q-27 0 -79 6t-77 6q-27 0 -79 1t-77 1q-16 0 -69.5 -6.5t-81.5 -1.5q-76 9 -125 76q-30 40 -38 86t11 90t61.5 70t92.5 26q9 0 27 3t26 3h193q24 0 71 -3t70 -3t70 -3t71 -3q153 6 156 6h158q24 0 73 -3t74 -3q141 6 145 6q36 0 107.5 1t107.5 1h62
q113 0 162 -59q13 -15 19 -37t6.5 -34.5t0.5 -39.5q0 -68 -28 -108z" />
    <glyph glyph-name="eight" unicode="8" horiz-adv-x="2056" 
d="M1882 874q33 -43 64 -131q28 -73 28 -143q0 -72 -24 -143q-24 -69 -70 -129q-35 -48 -100 -103q-38 -30 -121 -78q-49 -26 -152 -61q-101 -37 -155 -47q-123 -29 -160 -33q-88 -10 -164 -10q-84 0 -166 6q-32 4 -90 20t-70 19q-16 4 -50 10.5t-59.5 12.5t-47.5 14
q-108 37 -154 63q-19 11 -37.5 26t-40 35t-32.5 29q-73 58 -105 99q-52 66 -74 127q-20 50 -20 143q0 86 20 145q16 45 78 123q4 5 20.5 26.5t24 30.5t21.5 24t28 26q73 57 119 84q6 3 9.5 5t8 5t9.5 6q25 14 10 35q-57 67 -78 129q-33 83 -33 147q0 71 25 138q6 19 17 36.5
t32 44t27 33.5q56 73 92 101q46 38 117 71q62 32 127 52q58 16 135 26q10 1 59.5 11t77.5 10q80 0 137 -8q31 -4 135 -33q51 -16 127 -51q71 -38 117 -76q47 -37 94 -101q59 -75 72 -116q5 -12 7.5 -25t3.5 -29.5t1.5 -26t0 -30t-0.5 -27.5q0 -77 -26 -145q-37 -92 -70 -131
q-6 -10 -5.5 -18.5t9.5 -19t20 -19.5t26 -18.5t27 -16t24 -13.5t16 -10q99 -68 139 -121zM1028 1552q-70 0 -129 -16q-56 -11 -117 -51q-73 -51 -73 -99q0 -55 67 -110q48 -39 119 -59q75 -23 133 -23q38 0 125 25q92 26 121 51q61 55 61 116q0 50 -69 103q-61 42 -113 55
q-35 8 -125 8zM1489 457q113 59 113 143q0 91 -109 152q-80 43 -147 63q-100 32 -158 41q-18 3 -40 4t-38.5 1t-42.5 -0.5t-39 -0.5q-58 0 -160 -16q-91 -13 -155 -35q-87 -29 -148 -61q-110 -60 -110 -148q0 -90 108 -149q46 -24 150 -52q17 -5 47 -16t56.5 -18.5
t49.5 -10.5q66 -10 162 -10q24 0 50.5 3t59 8t48.5 7q101 11 157 27q58 17 146 68z" />
    <glyph glyph-name="nine" unicode="9" horiz-adv-x="1953" 
d="M1872 1272q0 -35 -25 -125q-3 -9 -8.5 -29t-9 -32t-10.5 -28.5t-15 -29.5q-16 -28 -37 -61.5t-41 -71.5q-18 -34 -39 -65.5t-40 -65.5l-74 -135q-19 -34 -34.5 -69t-33.5 -68l-73 -134q-19 -34 -39.5 -66.5t-38.5 -66.5q-20 -38 -41 -71.5t-37 -61.5q-23 -43 -62.5 -67.5
t-85.5 -24.5q-47 0 -86 20q-32 18 -55.5 45.5t-32.5 59.5q-18 63 21 135q22 39 44.5 78t43.5 78q23 42 46.5 80t43.5 75q19 35 -3.5 68.5t-62.5 30.5q-129 -11 -147 -11q-40 2 -145 15q-116 14 -148 22q-73 19 -139 45q-71 27 -133 68q-39 23 -113 84q-13 12 -26.5 27.5
t-20 23.5t-22.5 30.5t-19 26.5q-51 72 -68 125q-24 70 -24 142q0 83 18 141q23 72 64 131q26 36 98 100q62 58 111 89q27 16 143 63q29 11 152 39q90 22 151 29q13 1 47.5 6t59.5 7.5t49 2.5h4q122 0 156 -4q47 -6 151 -31q36 -8 148 -51q104 -42 141 -64q48 -30 113 -84
q74 -70 96 -100q33 -46 59 -131q29 -82 29 -139zM977 989q15 0 113 15q85 9 110 16q20 7 39 14.5t43.5 21t34.5 19t42 24.5t36 21q96 60 96 150q0 109 -90 162q-49 30 -135 65q-41 15 -146 31q-68 12 -147 12q-45 0 -146 -18q-81 -13 -141 -35q-82 -31 -133 -60
q-102 -64 -98 -157q0 -99 100 -158q54 -31 133 -63q92 -43 137 -52q49 -8 152 -8z" />
    <glyph glyph-name="colon" unicode=":" horiz-adv-x="587" 
d="M293 1389q94 9 133 51.5t39 118.5q0 72 -50 123t-122 51q-70 -6 -117 -54t-53 -120q-6 -70 46 -120t124 -50zM293 334q94 9 133 51.5t39 118.5q0 72 -50 123t-122 51q-70 -6 -117 -54t-53 -120q-6 -70 46 -120t124 -50z" />
    <glyph glyph-name="semicolon" unicode=";" horiz-adv-x="630" 
d="M336 1366q94 9 133 51.5t39 118.5q0 72 -50 123t-122 51q-70 -6 -117 -54t-53 -120q-6 -70 46 -120t124 -50zM299 -268q39 0 69 36.5t46 86.5l80 247q25 74 -7.5 122t-99.5 67q-43 10 -79 9t-65.5 -30t-45.5 -88l-70 -258q-13 -50 19 -112t90 -76q15 -4 63 -4z" />
    <glyph glyph-name="less" unicode="&#x3c;" horiz-adv-x="1585" 
d="M1356 799q64 -26 94 -94q25 -67 -2 -134q-22 -50 -65 -81t-95 -31q-12 0 -26 3t-22.5 6t-25.5 10t-22 9q-18 7 -50 23t-46 22q-20 9 -61 26t-62 26q-109 43 -123 49q-27 10 -73.5 33.5t-65.5 31.5q-124 47 -144 56q-70 28 -118 47q-23 9 -63 26.5l-56 24.5
q-57 21 -103 43q-52 27 -82 76q-29 51 -20 112q6 52 45 91q44 48 96 61q102 30 123 35q23 6 65 20t60 19q26 8 80 20.5t80 20.5l157 49q23 7 71.5 19.5t72.5 19.5q18 6 64.5 24t72.5 25q20 6 60 19.5t61 19.5q68 17 135 -17q66 -32 88 -104q18 -69 -20 -133
q-31 -61 -103 -82l-147 -45q-74 -23 -148 -43q-31 -10 -68.5 -24t-78.5 -25q-20 -6 -22 -28.5t18 -31.5q41 -18 80.5 -33t76.5 -30l156 -66q39 -16 78 -32.5t78 -32.5z" />
    <glyph glyph-name="equal" unicode="=" horiz-adv-x="1484" 
d="M301 1061q74 2 148 2q40 1 78 -1.5t71 -2.5q28 1 52 2t43 1.5t52 0.5q31 1 69 3.5t79 2.5h147q74 0 148 2q67 0 121 51q53 56 53 121q0 46 -24.5 86.5t-65.5 63.5q-21 12 -52 18t-50.5 7t-62.5 0t-52 -1q-25 0 -78 -3t-78 -3q-27 0 -79 -1t-79 -1q-22 0 -74.5 3.5
t-80.5 2.5h-144q-96 0 -143 -2q-71 0 -123 -55q-53 -53 -53 -123t53 -123q45 -48 125 -51zM305 594q37 0 74 2t74 2q41 1 78.5 -0.5t68.5 -1.5h148q37 0 73.5 3t73.5 3t74 -3t75 -3q37 0 74 2t74 2q76 0 125 49q45 45 45 125q0 45 -21 85t-57 63q-21 13 -49 19t-47 7
t-57 -0.5t-50 -1.5q-27 0 -79.5 -2t-77.5 -2q-26 0 -80 2t-80 2h-160q-26 0 -76 -4t-75 -4t-75 3t-75 3q-71 0 -123 -55q-47 -44 -47 -123q0 -75 49 -121q51 -51 121 -51h2z" />
    <glyph glyph-name="greater" unicode="&#x3e;" horiz-adv-x="1585" 
d="M385 864l156 66q37 15 76.5 30t80.5 33q20 9 18 31.5t-22 28.5q-41 11 -78.5 25t-68.5 24q-74 20 -148 43l-147 45q-71 21 -102 82q-38 65 -21 133q22 72 88 104q67 34 135 17q21 -6 60.5 -19.5t60.5 -19.5q26 -7 72.5 -25t64.5 -24q23 -7 72 -19.5t72 -19.5l157 -49
q27 -8 80.5 -20.5t79.5 -20.5q18 -5 60 -19t65 -20q20 -5 123 -35q52 -13 96 -61q39 -39 45 -91q9 -61 -20 -112q-30 -49 -82 -76q-46 -22 -103 -43q-17 -7 -56.5 -24.5t-61.5 -26.5q-28 -11 -119 -47q-20 -9 -144 -56q-19 -8 -65.5 -31.5t-73.5 -33.5q-14 -6 -123 -49
q-21 -9 -62 -26t-61 -26q-14 -6 -46 -22t-50 -23q-5 -2 -22 -9t-25.5 -10t-22.5 -6t-26 -3q-52 0 -95 31t-65 81q-27 67 -2 134q30 68 94 94z" />
    <glyph glyph-name="question" unicode="?" horiz-adv-x="1630" 
d="M1409 1733q42 -65 64 -142q33 -114 34 -153q3 -68 -18 -156q-12 -62 -57 -143q-45 -83 -101 -133q-68 -62 -135 -101q-5 -3 -21 -12.5t-20.5 -12t-17.5 -11t-18 -12.5t-15 -12.5t-16 -15.5t-13.5 -16.5t-13.5 -19.5q-48 -76 -51 -179q-3 -72 -49 -118q-35 -35 -119 -43
q-67 -3 -117 36q-69 59 -66 138q5 85 33 180q24 91 70 170q44 69 115 133q18 16 40 31.5t35 23t40 23t32 18.5q46 27 68.5 47t37.5 47q32 59 29 125t-39 121q-37 57 -119 84q-71 25 -133 29q-79 5 -159 -19q-83 -25 -140 -79q-76 -71 -104 -185q-14 -68 -76 -106
q-69 -41 -131 -25q-73 16 -111 76q-37 57 -20 135q16 64 45 131q23 55 70 119q27 41 94 100q61 57 96 80q59 38 111 60q84 34 119 43q17 3 116 14q52 2 115 -2q58 -5 113 -14q70 -13 110 -25q99 -35 158 -76q62 -46 135 -153zM825 385q13 0 33 -4q59 -12 100 -59
q39 -48 39 -111q0 -72 -51 -123t-121 -51q-73 0 -125 49q-51 54 -51 125q0 27 15 70q22 47 66 75.5t95 28.5z" />
    <glyph glyph-name="at" unicode="@" horiz-adv-x="2215" 
d="M2093 1092q0 -81 -14 -150q-5 -22 -12 -44t-20 -55t-17 -44q-34 -82 -62 -125q-42 -64 -88 -107q-43 -38 -106 -61q-67 -26 -121 -19q-95 11 -148 56q-9 7 -18.5 17.5t-15.5 17.5t-14.5 14t-16.5 10t-19 2.5t-24 -6.5q-17 -6 -48 -27t-49 -26q-83 -24 -190 -21
q-55 0 -125 17q-93 23 -119 34q-53 25 -108 66q-86 65 -137 150q-33 57 -46 104q-8 30 -8 113q0 106 49 200q49 93 123 156q38 31 117 70q10 5 29.5 15.5t32 16.5t30 13t33.5 10q60 14 135 14q21 0 42.5 -4t51.5 -12t41 -10q10 -2 41.5 -8t51.5 -11.5t38 -13.5
q51 -25 115 -78q83 -67 127 -154q23 -43 39 -133q2 -9 9 -60t14 -77q3 -13 13.5 -17.5t18.5 9.5l4 2q33 73 33 151q0 54 -26 121q-15 37 -62 107q-21 30 -44.5 58.5t-41 47t-18.5 19.5q-6 5 -15.5 9t-11.5 5q-79 64 -135 90q-77 36 -156 51q-83 17 -174 11q-64 -5 -166 -39
q-117 -41 -168 -74q-82 -56 -139 -119q-17 -20 -38 -63t-23 -47q-46 -84 -54 -113q-15 -59 -18 -123q0 -37 22 -123q2 -11 6.5 -31.5t7 -32.5t8 -27.5t11.5 -27.5q18 -38 72 -102q59 -71 133 -127q73 -50 164 -82q55 -18 147 -22q58 -6 150 6q118 16 147 26q70 25 131 -2
q63 -27 90 -96q22 -61 -8 -129q-33 -76 -90 -96q-19 -7 -121 -33q-4 -1 -50 -16t-73 -17q-8 -4 -63 -1t-64 3q-68 0 -157 13q-67 11 -152 41q-45 14 -129 53q-88 43 -121 67q-78 54 -110 86q-20 18 -50.5 57.5t-39.5 49.5q-11 13 -32 37.5t-37 44.5t-28 39q-35 64 -65 141
q-6 17 -10.5 38.5t-7 37t-6 40t-5.5 36.5q-11 71 -8 153q0 18 -2 50t-2 57.5t4 48.5q13 65 45 149q14 37 78 136q39 61 92 124q7 8 21 24.5t23 27t22.5 24t25.5 23.5q16 14 34 27.5t42 30t35 24.5q31 20 119 65q11 5 38 19.5t47 23.5t39 15q42 14 130 30q79 15 131 17
q105 9 133 8q49 -4 133 -23q39 -8 147 -49q86 -28 144 -63q13 -7 43 -22t52.5 -28t41.5 -28q68 -55 115 -107q52 -55 98 -123q54 -77 94 -184q18 -44 33 -117q10 -51 10 -120zM1309 975q2 4 2 33t-13.5 55.5t-29.5 38.5q-63 53 -160 53q-78 0 -150 -61q-38 -30 -38 -86
q0 -53 71 -99q62 -41 123 -41q53 -3 111 25q67 34 84 82z" />
    <glyph glyph-name="A" unicode="A" horiz-adv-x="2324" 
d="M1989 252q34 -74 14 -133q-22 -69 -90 -105q-30 -12 -80 -12q-48 0 -89.5 26.5t-64.5 71.5l-65 133q-18 36 -49.5 52t-94.5 24q-23 6 -67.5 2t-67.5 -4q-35 0 -69 3t-68 3h-137q-30 0 -47.5 -0.5t-40.5 -1.5t-49 -2q-34 0 -68 1t-68 1q-26 0 -52 5t-36 5.5t-49 -8.5
q-22 -8 -35 -13t-26 -15t-17 -13t-20.5 -22.5t-24.5 -28.5q-22 -24 -30 -39.5t-15.5 -39.5t-19.5 -48q-23 -44 -67.5 -70t-92.5 -26q-8 0 -15.5 1.5t-16 5t-14 6t-16 7.5t-14.5 7q-79 42 -96 94q-23 67 10 137l66 127q40 84 63 129q17 34 36 65t34 60q4 8 61 129
q25 47 64 127q15 29 35.5 60.5t36.5 64.5q18 34 33 68t28 61q16 31 30 64t31 65q14 28 22.5 44.5t18.5 38t23 46.5q58 110 65 125q17 33 31.5 65.5t30.5 65.5q18 35 33.5 68.5t27.5 58.5q38 72 117 92q59 18 123 -6q60 -26 88 -86q10 -21 27.5 -64t27.5 -63t34 -60t34 -61
t27 -65t26 -64q9 -19 34.5 -58t35.5 -61q1 -1 61 -131q31 -57 64 -129q57 -107 67 -129l64 -129q12 -23 27 -69.5t24 -65.5q11 -21 38.5 -61.5t39.5 -61.5q9 -18 24.5 -65t28.5 -70q20 -43 66 -129zM827 659q38 0 76.5 3.5t77.5 3.5h154h153q39 0 61 31.5t5 66.5
q-5 8 -13 16.5t-12 18.5q-18 36 -31 73t-30 72q-18 35 -40 68.5t-40 68.5q-13 27 -21 53t-16.5 45t-30.5 46q-25 31 -50 31t-40 -29q-3 -5 -4 -12t-4 -13q-44 -89 -72 -141q-18 -36 -42 -68.5t-42 -68.5q-19 -36 -30 -75t-29 -75q-5 -10 -15.5 -17.5t-15.5 -17.5
q-13 -26 4.5 -53t46.5 -27z" />
    <glyph glyph-name="B" unicode="B" 
d="M2007 532q2 -55 -12 -129q-8 -33 -49 -118q-22 -41 -80 -99q-6 -6 -22.5 -22t-25 -23.5t-22.5 -19.5t-27 -21t-26 -16q-22 -10 -47 -17t-61 -14t-48 -10q-16 -4 -71 -20t-84 -19q-23 -2 -80 -0.5t-80 0.5q-22 0 -75 -3.5t-81 -2.5q-27 0 -80 -1t-78 -1q-28 0 -83 3t-82 3
q-26 0 -81 2t-83 2h-164q-11 0 -34.5 -5t-35.5 -5q-9 0 -26.5 3t-26.5 3q-8 0 -23.5 1t-23.5 1q-42 3 -72 19q-52 25 -76 75q-3 7 -6 19l-4 16q-4 20 -4 62q0 5 -5.5 14.5t-4.5 13.5q0 7 1 20t1 19q0 8 2 24.5t2 24.5q0 10 3 30t3 30t-3 31.5t-3 33.5q0 11 -2 35t-2 37
q0 14 -1 39t-1 39t7 41t7 41t-3 43t-3 43t-4 43t-4 45q0 14 2 44t2 44q0 16 2 45.5t2 44.5q0 14 -3 43t-3 45q0 14 2 43t2 43q0 13 2 41t2 43q0 12 -2 38t-2 40v74q0 12 2 34t2 33q0 10 1 30t1 29t-1 26.5t-1 25.5t-0.5 34t0 38.5t2.5 32.5t6 36q22 89 84 121q10 5 39 10
q8 1 26 2t27 2q17 0 53 2t54 2q20 0 60 -4t59 -4q23 0 68 3t67 3h127q15 0 46 -2t46 -2q6 0 18.5 1t18.5 1q51 0 141 -8q39 -5 139 -27q75 -19 134 -45q44 -23 116 -80q9 -8 29.5 -24t34.5 -28.5t24 -26.5q9 -12 17.5 -28t12 -23.5t13.5 -32.5t11 -27q24 -57 32 -107
q11 -51 11 -112q0 -116 -39 -211q-9 -27 6 -54t43 -38q22 -7 57 -28t39 -23q56 -33 103 -80q6 -6 23 -22.5t25 -25t19.5 -22.5t18.5 -27q29 -54 45 -122q18 -74 18 -130zM934 1528q-34 0 -67.5 2.5t-61.5 3.5q-63 2 -129 2q-32 0 -64 1t-63 1q-29 0 -49.5 -22t-20.5 -52
q-1 -33 -3.5 -74t-2.5 -85q0 -40 4 -80t4 -80q0 -30 19.5 -54t46.5 -24t79 1t79 1h155h135q91 0 144 18q82 27 125 84q49 66 49 144q0 89 -70 141q-53 45 -147 62q-54 10 -162 10zM1620 434l4 4q4 5 6 8t5.5 11t6 16.5t4 23t1.5 31.5q-1 58 -15.5 88.5t-46.5 49.5
q-30 16 -125 34q-64 12 -129 15q-16 1 -44.5 4t-52 5t-44.5 3q-24 0 -71 -1t-70 -1q-28 0 -83.5 1t-82.5 1q-29 0 -85 1t-83 1t-84 -1t-84 -1q-29 0 -51.5 -21t-22.5 -49q0 -29 4 -59t4 -59q0 -30 -5 -60t-5 -59t23.5 -52.5t52.5 -23.5h160h157q40 0 79.5 3t78.5 3
q42 1 82.5 -2.5t77.5 -3.5h2q15 -1 39 1t57 5.5t55 5.5q88 3 152 17q99 16 133 61z" />
    <glyph glyph-name="C" unicode="C" horiz-adv-x="1994" 
d="M1057 -6q73 0 155 16q100 15 154 35q103 34 147 59q35 21 121 93q44 34 111 104q9 10 32 34t39 43t29 38q36 60 23 135q-16 70 -78 111q-52 34 -131 16q-73 -14 -109 -70q-51 -76 -94 -114q-50 -47 -119 -84q-49 -30 -135 -52q-70 -18 -145 -18q-48 0 -150 25
q-8 2 -35.5 9.5t-40 11.5t-33 12t-36.5 18q-74 43 -123 92q-31 31 -90 125q-29 50 -51 143q-21 71 -21 150q0 8 -0.5 36.5t0 42t2.5 35.5t6 39q12 51 66 140q50 86 88 124q51 51 123 93q39 23 143 53q90 22 152 22q59 0 141 -22q97 -21 137 -43q10 -6 20.5 -13t18 -13
t19 -16t16.5 -15t18 -17t17 -16q8 -7 26 -22t28 -24t23.5 -23t22.5 -27q57 -84 139 -84q45 0 97 36q67 47 78 111q11 60 -35 127q-8 11 -26.5 39t-32.5 47t-29 35q-12 13 -28 27t-28 23.5t-32 25t-29 22.5q-42 30 -129 78q-100 54 -135 65q-74 25 -146 37q-128 15 -151 15
q-84 0 -125 -6q-31 -5 -123 -27q-38 -12 -115 -45q-100 -44 -159 -86q-95 -64 -142 -111q-19 -19 -35.5 -41.5t-39 -58t-29.5 -45.5q-71 -104 -94 -154q-23 -55 -39 -119q-8 -32 -21 -122q-12 -82 -12 -123q0 -19 2 -39.5t5.5 -45t4.5 -38.5q7 -49 29 -121q13 -54 39 -117
q8 -18 21.5 -53t26 -62t28.5 -49q42 -63 118 -135q86 -86 135 -119q22 -15 49 -27.5t62 -26t53 -21.5q75 -31 117 -41q58 -18 121 -27q102 -10 123 -10z" />
    <glyph glyph-name="D" unicode="D" horiz-adv-x="2121" 
d="M1993 1028q4 -39 4 -115l1 -58q2 -58 -1 -58q-1 -16 -5 -35t-7 -31.5t-10 -36t-9 -32.5q-9 -33 -53 -127q-26 -58 -78 -127q-55 -72 -100 -113q-67 -63 -119 -96q-76 -50 -133 -78q-3 -2 -10.5 -5t-10.5 -5q-20 -9 -43 -16.5t-55.5 -16t-44.5 -12.5q-83 -25 -143 -37
q-16 -3 -46 -10.5t-54 -12t-46 -6.5q-88 -10 -160 -10q-51 -2 -157 2q-5 0 -158 6q-31 0 -95 3t-95 3h-21h-23t-20.5 0.5t-22.5 2t-19 4t-21 6t-19 8.5t-20 12q-68 50 -68 139q6 60 6 154q0 20 -2 71.5t-2 81.5q0 23 -4 74t-4 78q0 25 2 76t2 77v154q0 26 -1 77t-1 77
q0 27 -2 78t-2 75q0 27 7 78.5t7 75.5q0 30 -2 81t-2 72l-2 152q0 81 76 137q61 43 188 47h162q27 0 80.5 -6t79.5 -6q53 -2 162 -2q53 0 155 -12q16 -2 50 -6t59.5 -8.5t48.5 -10.5q59 -14 149 -47q80 -29 144 -65q69 -37 133 -82q64 -47 119 -101q75 -75 104 -116
q11 -15 22 -34.5t17.5 -33.5t18 -37.5t16.5 -34.5q2 -6 12 -30t19 -49t16 -50q20 -64 31 -133zM1599 682q2 5 10 22t11 24.5l9 22.5t9 25t6.5 23.5t4.5 25.5q7 59 -7 154q-15 100 -45 170q-36 81 -73 123q-32 36 -111 92q-34 27 -127 68q-68 38 -131 57q-69 21 -137 33
q-59 10 -144 10q-54 1 -104.5 -0.5t-91.5 -1.5q-102 0 -146 -47q-57 -54 -57 -146q0 -37 1 -74t1 -75t-3 -75.5t-3 -74.5q0 -38 6 -75.5t6 -75.5q0 -37 -1 -74.5t-1 -75.5t-5 -75t-5 -74q0 -59 33 -123q37 -59 90 -92q41 -23 123 -27q19 0 77.5 1t79.5 -1h13v2q69 0 151 10
q45 7 150 37q103 28 145 47q83 39 154 99q79 66 112 141z" />
    <glyph glyph-name="E" unicode="E" horiz-adv-x="2107" 
d="M1823 344q66 0 104 -53q45 -67 45 -123q-3 -76 -53 -123q-39 -39 -123 -39q-1 0 -2 -1t-2 -1q-22 0 -65 -6t-64 -6t-64 5t-65 5t-66 -4t-65 -4t-64 3t-65 3q-24 0 -71 2t-70 2q-22 0 -69 -6t-71 -6t-71 4t-70 4q-24 0 -70 -3t-69 -3t-71 5t-71 5q-24 0 -70.5 -2t-68.5 -2
q-9 0 -39 -0.5t-44.5 0t-37.5 2.5t-41 6q-55 11 -94 60q-43 53 -43 106q-4 58 -4 152q0 21 6 72t6 81q0 24 1 75.5t1 78.5q0 24 -3 75t-3 78q0 25 -1 76.5t-1 77.5t-3 77t-3 77t6 77t6 76q0 27 -5 78t-5 74q0 30 2 81.5t2 71.5q0 49 -2 83.5t-2 70.5q0 55 62 117
q27 29 57 39.5t76 13.5q43 2 129 2q18 0 62 3.5t67 2.5q21 0 64.5 -1t66.5 -1t70 -1t71 -1q23 0 71 1t72 1q23 0 71 -4t73 -4q23 0 70 6t71 6q25 0 72.5 -3t70.5 -3q21 0 64 -1t65 -1t64 2t63 2t64 -1t65 -1q67 0 121 -51q49 -46 52 -117q3 -64 -41 -125q-35 -53 -105 -53
q-35 0 -70 -2t-71 -2q-35 0 -70.5 3t-71.5 3t-71 -4t-70 -4q-36 0 -71 1t-70 1q-36 0 -71 1t-70 1q-36 0 -71.5 3t-70.5 3q-36 0 -71.5 -5t-71.5 -5q-35 0 -70 4t-71 4q-82 0 -156 -70q-70 -74 -70 -155q0 -15 -1 -29t-1 -29q0 -77 56 -133q58 -55 135 -55h135q35 0 69 2
t68 2q35 0 69 -1t68 -1q82 0 125 -43q50 -50 53 -123q0 -50 -49 -123q-45 -63 -102 -63q-37 0 -73.5 6t-80.5 6h-153q-37 0 -75.5 -3t-58.5 -6l-20 -3q-84 0 -121 -45q-35 -40 -39 -127q-4 -84 29 -129q24 -31 60.5 -50.5t74.5 -19.5l7 1q8 1 21 2t30 2t41 2t49 1
q20 0 69 -6t78 -6q22 0 71 7t75 7q24 0 73 -1t74 -1t73.5 -6t71.5 -6q26 0 76 3t72 3h147q46 0 79 -1t67 -1z" />
    <glyph glyph-name="F" unicode="F" horiz-adv-x="2099" 
d="M1804 1880q67 -11 123 -57q49 -43 49 -119q0 -65 -51 -119q-52 -49 -119 -49q-36 0 -71 -1t-70 -1q-36 0 -71 1t-70 1q-36 0 -71.5 -6t-70.5 -6q-36 0 -71.5 4t-71.5 4q-35 0 -70 -4t-71 -4q-35 0 -70.5 3t-71.5 3q-35 0 -70 -1t-71 -1q-35 0 -70 4t-71 4q-84 0 -142 -61
q-59 -59 -59 -142v-104q0 -62 55 -113q57 -57 113 -57q36 0 72 1t73 1h148q36 0 72 3t73 3q78 0 127 -49q43 -43 43 -129q0 -83 -45 -125q-52 -49 -127 -49q-35 0 -69.5 -1t-69.5 -1q-69 0 -139 2q-35 0 -70.5 2t-71.5 2q-70 0 -125 -55q-59 -59 -59 -125q0 -46 1 -92.5
t1 -92.5t-2 -92t-2 -92q0 -62 -31 -104q-45 -55 -94 -66q-50 -13 -113 14q-47 22 -76.5 64t-29.5 92q-4 60 -4 154q0 21 1 72t1 81q0 23 1 74t1 80v153q0 24 2 75.5t2 78.5q0 26 -2 77t-2 75q0 27 -1 78t-1 75q0 29 4 80t4 74v153q0 49 -1 83t-1 71q0 60 25 100q27 39 90 64
q43 16 143 16q15 0 47 -5t49 -5q21 0 64.5 4t66.5 4q26 0 77 -1t77 -1q28 0 85 1t85 1t87 -4t89 -4q28 0 86 5t86 5q26 0 81 -5t81 -5q38 0 178 4q14 1 58.5 4t60 2.5t57.5 -4.5z" />
    <glyph glyph-name="G" unicode="G" horiz-adv-x="2131" 
d="M2009 537q0 -77 -10 -101q-24 -53 -86 -135q-29 -40 -113 -115q-41 -34 -121 -77q-90 -50 -129 -62q-73 -23 -172 -37q-122 -16 -176 -16q-44 0 -166 10q-24 2 -141 27q-9 2 -62 10.5t-79 17.5q-20 7 -41 18.5t-46.5 26.5t-39.5 23t-59.5 29.5t-67.5 36.5q-17 13 -35 30
t-38 38t-32 32q-86 82 -119 131q-31 44 -79 158q-29 67 -41 114q-19 64 -27 121q-4 27 -4 123q0 11 -1 38t-0.5 47t3.5 38q7 73 20 123q31 108 37 121q32 77 86 157q12 17 29.5 37t27 30t36 36t30.5 30q10 9 39.5 39t50.5 48.5t43 33.5q22 16 47.5 28.5t62.5 27.5t52 22
q10 3 27 9.5t30.5 11t26.5 8.5q123 40 168 45q37 4 172 4q32 0 180 -10q114 -12 176 -29q43 -12 119 -53q91 -40 117 -60q58 -42 100 -86q28 -28 82 -102q47 -67 35 -133q-9 -65 -76 -115q-37 -24 -102 -24q-98 0 -146 67q-56 78 -94 107q-51 38 -131 61q-54 15 -182 23
q-17 0 -53.5 1t-55.5 1q-12 0 -35 1.5t-42 1.5t-35 -3q-90 -15 -172 -60q-72 -42 -146 -116q-35 -35 -86 -123q-55 -88 -67 -136q-9 -35 -9 -151q0 -14 -1.5 -46t-0.5 -55.5t5 -43.5q16 -78 49 -140q7 -12 14.5 -23t19.5 -24l18 -19.5t23 -23t21 -20.5q39 -39 127 -92
q68 -38 145 -62q10 -3 45.5 -14.5t60 -17t48.5 -7.5q21 -1 65 1.5t64 2.5q13 0 39.5 -1t48.5 -1t41 2t39 7t46.5 14t37.5 12q10 3 31.5 9t32 9.5t24.5 10.5t24 16q27 25 58 109q14 37 14 41q0 17 -14.5 30t-30.5 13q-27 1 -53 -2t-49 -3q-67 0 -121 58q-60 56 -60 123
q0 63 62 121q55 55 121 55q44 0 88 1t88 1q43 0 86.5 -5t87.5 -5q70 0 119 -52q49 -46 49 -118q0 -23 1.5 -94.5t0.5 -110.5q0 -9 3 -27.5t3 -27.5z" />
    <glyph glyph-name="H" unicode="H" horiz-adv-x="2232" 
d="M3717 2454q80 -37 98 -93q4 -12 4 -26.5t-1.5 -25t-8 -28t-10 -25t-12.5 -26.5q-39 -73 -90 -90q-71 -23 -133 6q-9 5 -39 22t-50.5 27t-40.5 17q-11 4 -59 25.5t-74 29.5q-71 24 -141 39q-26 7 -71.5 5.5t-71.5 0.5q-12 2 -62 11t-76 10q-15 1 -65.5 6.5t-77.5 3.5
q-26 -1 -72 -17.5t-65 -19.5q-27 -4 -79.5 -2t-74.5 -2q-25 -4 -48.5 -14.5t-51 -25.5t-41.5 -21l-19 -9.5l-20 -10t-17.5 -9.5t-19 -12t-16 -12.5t-17 -16t-14.5 -17.5q-5 -8 -19 -26t-21.5 -29t-17.5 -27.5t-16 -31.5q-9 -23 -12.5 -71.5t-7.5 -65.5q-17 -63 -27 -134
q-2 -15 -11.5 -61t-10.5 -72q-6 -70 -6 -137q0 -22 -1 -67.5t-1 -69.5q0 -22 -5.5 -67t-5.5 -68q0 -24 7.5 -69.5t7.5 -67.5t-6.5 -68.5t-6.5 -69.5q0 -22 -5 -68t-5 -69q0 -22 4 -67.5t4 -69.5q0 -28 7.5 -84t7.5 -84q0 -29 2 -86t2 -84q0 -31 -7 -88.5t-8 -81.5
q0 -97 -38 -133q-33 -31 -134 -31q-62 0 -116 51q-54 47 -54 113q-6 61 -6 135q0 21 -5 67t-5 68q0 39 5 70.5t5 64.5q0 65 -37 105q-37 37 -104 37q-39 0 -77.5 -2t-76.5 -2q-39 0 -77 4t-76 4t-76.5 -7t-77.5 -7q-38 0 -76 5t-77 5q-38 0 -76.5 -3t-77.5 -3
q-38 0 -76.5 -1t-77.5 -1q-56 0 -94.5 -33.5t-38.5 -87.5q0 -35 -4 -69.5t-4 -69.5q0 -33 3.5 -68t2.5 -72v-139q0 -87 -43 -127q-56 -53 -129 -53q-79 0 -131 49q-47 44 -47 131q12 60 12 154q0 20 -8 71.5t-8 81.5q0 23 9 74t9 80q0 24 -8 74.5t-8 76.5q0 25 3 76.5
t3 77.5q0 25 7 76.5t7 77.5q1 28 -6.5 79.5t-7.5 73.5q0 27 -3 78.5t-3 75.5v153q0 49 7 82.5t7 69.5q0 77 47 121q39 37 121 37q88 0 125 -35q49 -43 49 -123q0 -29 2 -90t2 -92q0 -28 5 -90t4 -93q0 -12 -9 -74t-2 -94q16 -92 115 -92q62 -6 154 -6q21 0 71.5 -8t79.5 -8
q24 0 76 14t78 14t77.5 -4t75.5 -4q29 0 80 -4t72 -4q48 0 82.5 -5t71.5 -5q70 0 120 53q6 6 11 13t8 16.5t4.5 15.5t2.5 19.5t1 17.5v20.5v18.5q0 49 4 147l6 146q4 98 8 147q1 27 7.5 77t7.5 67q2 30 18.5 83.5t20.5 73.5q6 30 49 152q5 16 12.5 48t15.5 57.5t21 45.5
q7 11 15 23t14.5 20.5t18.5 22t16.5 18.5t19.5 20.5t18 18.5q57 56 95 84q15 11 32.5 20t43 19.5t36.5 15.5q12 7 34 20.5t40.5 23.5t36.5 16q17 5 46 16t52.5 19t44.5 12q25 5 150 22q24 3 68.5 2t70.5 1q67 6 137 6q116 0 139 -2q19 -2 70 1.5t70 -1.5q26 -4 72 -16.5
t65 -16.5q32 -7 89 -29.5t73 -27.5q68 -21 159 -60q87 -33 158 -69z" />
    <glyph glyph-name="I" unicode="I" horiz-adv-x="2191" 
d="M1884 348q66 0 125 -55q56 -53 59 -123q0 -58 -61 -119q-57 -57 -121 -57q-36 0 -71.5 4t-71.5 4t-72 -6t-72 -6t-72 6t-73 6q-36 0 -71.5 -7t-71.5 -7t-72 6t-72 6t-72 -2t-73 -2q-36 0 -71.5 -4t-71.5 -4t-72 2t-72 2t-71.5 -2t-71.5 -2q-37 0 -73.5 4t-72.5 4t-71.5 3
t-71.5 3q-81 0 -123 45q-56 53 -53 123q0 71 55 123q51 51 123 51q37 0 74.5 3t75.5 3q37 0 73.5 -6t73.5 -6h150q74 0 125 51q36 36 36 125q0 37 2.5 74.5t2.5 75.5q0 37 2 74t2 75q0 37 -4.5 74.5t-4.5 75.5q0 37 1 74t1 75q0 37 5.5 74.5t5.5 75.5q0 37 -1 74t-1 75
q0 50 -37 88.5t-86 38.5q-42 0 -84 -2t-84 -2t-84.5 -1t-85.5 -1q-42 0 -84 3t-84 3q-83 0 -127 41q-45 48 -45 127q0 80 47 127q54 51 127 51q36 0 71.5 -4t71.5 -4t72 3t72 3q37 0 73 -4t72 -4t71.5 5t71.5 5h144q36 0 71.5 -6t71.5 -6q37 0 73.5 3t72.5 3t71.5 -1
t71.5 -1t71.5 -1t71.5 -1t72 3t72 3t72 -4t73 -4q86 0 127 -41q45 -45 45 -127q0 -69 -51 -123q-56 -53 -125 -53q-37 0 -73.5 2t-73.5 2h-150h-149q-65 0 -115 -47q-49 -49 -49 -115q0 -34 2 -68t2 -69t-1 -69.5t-1 -69.5t-1 -69.5t-1 -68.5q0 -35 1 -69.5t1 -69.5
t-1 -69.5t-1 -69.5q0 -34 4 -68t4 -69q0 -90 53 -140q60 -63 139 -63q35 0 70 1t70 1t69.5 2t69.5 2t69.5 2t69.5 2z" />
    <glyph glyph-name="J" unicode="J" horiz-adv-x="2293" 
d="M1835 1917q80 0 123 -43q59 -59 59 -125q0 -29 -6 -86t-6 -86v-174q0 -21 -1 -64t-1 -65t7 -64.5t7 -62.5q0 -21 -2 -64t-2 -65q0 -98 -8 -174q-17 -112 -33 -156q-16 -41 -67 -145q-12 -23 -29 -46.5t-39.5 -51.5t-32.5 -42q-67 -86 -110 -127q-45 -43 -131 -102
q-79 -56 -144 -86q-85 -40 -159 -59q-61 -15 -168 -23q-9 -1 -33.5 -6.5t-38.5 -5.5q-43 0 -162 18q-126 24 -158 35q-71 25 -149 68q-37 20 -115 82q-11 8 -36.5 26t-43 31.5t-32.5 28.5q-16 15 -30.5 33t-31.5 42t-26 35q-74 88 -89 113q-37 61 -20 135q16 56 88 100
q66 40 129 23q66 -15 102 -82q37 -60 74 -102q28 -32 94 -86q5 -4 23.5 -19.5t27.5 -22.5t24 -17.5t28 -16.5q15 -9 31.5 -16t36.5 -12.5t33 -8t37.5 -7.5t33.5 -7q115 -27 178 -21q61 5 141 29q57 18 129 65q79 48 117 86q44 40 76 84q32 40 61 97q50 96 68 182q6 30 6 35
q0 42 -2 84t-2 84v168q0 42 2 83.5t2 83.5q0 63 -47 107q-45 45 -107 45q-35 0 -70 -4t-71 -4q-35 0 -70 3t-71 3q-65 0 -121 53q-49 52 -49 121q0 78 47 125q56 53 125 53q38 0 75.5 -3t75.5 -3t76 -2t76 -2t75 2t74 2q38 0 76 -3t76 -3z" />
    <glyph glyph-name="K" unicode="K" horiz-adv-x="2207" 
d="M3836 -180q23 -55 -4 -127q-33 -85 -80 -105q-6 -2 -62.5 -25t-89.5 -34q-105 -34 -155 -47q-22 -5 -48 -10t-59.5 -10.5t-52.5 -8.5q-23 -4 -49.5 -7t-59.5 -6t-51 -5q-20 -2 -75.5 -10.5t-86.5 -8.5q-23 0 -67.5 14t-67.5 15q-17 2 -66.5 0.5t-68.5 3.5q-15 2 -61.5 5
t-71.5 9q-26 7 -69.5 26.5t-61.5 25.5q-7 2 -58 16t-75 23q-26 10 -68.5 32t-58.5 29q-22 11 -65 29t-62 28l-119 72q-24 16 -64 52t-59 50t-125 99q-13 10 -58 42.5t-67 53.5q-15 10 -30 29q-6 6 -11.5 14t-11.5 14q-13 12 -80 90q-13 13 -43.5 38.5t-44.5 41.5
q-26 28 -49 59.5t-49 59.5q-27 29 -50.5 59.5t-47.5 57.5q-24 25 -54 50.5t-57 55.5q-26 28 -48.5 59.5t-47.5 59.5q-36 40 -109 62q-78 24 -127 6q-44 -19 -57 -28.5t-49 -45.5q-16 -13 -26.5 -30.5t-23 -50.5t-14.5 -38q-33 -64 -33 -125q0 -37 -8 -73t-8 -72
q0 -37 9 -73.5t9 -72.5q0 -70 -57 -127q-61 -61 -125 -61q-57 0 -123 66q-43 46 -43 124q0 37 3 74t3 74t-12 73.5t-12 73.5q0 38 8 75.5t8 74.5t-5 73.5t-5 73.5t2 74t2 74q0 38 2 75t2 74t-4 74t-4 74t-1 74t-1 75q0 37 9 74t9 74t-1 73.5t-1 73.5t1 74.5t1 75.5
q0 84 41 123q38 38 123 38q31 -1 49 -3t40.5 -11t37.5 -24q43 -43 43 -125q0 -41 -3 -81.5t-3 -80.5q0 -41 6 -81.5t6 -80.5t-4 -80.5t-4 -81.5q0 -35 22 -62t54 -40q75 -34 127 10q28 24 59.5 47t61.5 49q28 24 52 55t54 56q28 24 58.5 48t60.5 50q63 54 117 99
q30 27 64.5 46t62.5 42q28 24 52 55.5t54 56.5q29 25 62.5 45.5t62.5 44.5q58 49 121 43q57 -3 109 -65q56 -63 51 -119q-3 -70 -62 -119q-27 -23 -58.5 -43t-59.5 -43q-30 -25 -53.5 -55t-49.5 -53q-29 -23 -53 -51t-53 -52q-28 -25 -65 -38.5t-64 -36.5t-51.5 -52.5
t-53.5 -54.5q-21 -18 -28 -41t-9 -59q-4 -70 25 -103q26 -28 52 -54t52 -54q27 -30 55 -57t52 -52q26 -28 43.5 -62.5t42.5 -62.5q23 -24 36.5 -38t31.5 -31t38 -37q2 -2 12 -10.5t15 -14.5q2 -3 4.5 -12.5t5.5 -13.5q20 -23 41 -43t37 -37q16 -18 33.5 -40t38.5 -44
q21 -21 67 -50t62 -42q16 -14 51.5 -54t58.5 -57q25 -18 74.5 -43.5t63.5 -34.5q13 -8 51.5 -39t66.5 -47q19 -10 68 -20.5t74 -22.5q18 -8 59 -36t66 -38q24 -8 72.5 -14.5t70.5 -11.5q10 -2 60.5 -14.5t78.5 -16.5q47 -6 141 -6q22 -1 45.5 0t52 3t44.5 3q21 2 70 -4
t73 -2q19 3 139 31q28 7 74 26.5t62 24.5q2 1 131 51q78 35 139 12q45 -20 84 -108z" />
    <glyph glyph-name="L" unicode="L" horiz-adv-x="1748" 
d="M1450 344q72 0 119 -47q57 -54 57 -119q0 -91 -65 -133q-55 -38 -148 -45q-30 -1 -85 1.5t-71 2.5q-27 0 -80 2t-79 2t-80 -4t-80 -4h-180h-180q-22 0 -72.5 4.5t-75.5 3.5q-18 0 -55 -6t-56 -6q-44 2 -104 35q-86 56 -86 147q6 53 6 141q0 19 -3 67.5t-3 76.5v141
q0 22 4 70.5t4 73.5q0 22 -4 69.5t-4 71.5q0 23 -3 70.5t-3 70.5q1 22 7.5 70.5t6.5 73.5q1 27 -2.5 74.5t-3.5 66.5q0 26 -2 73.5t-2 69.5q0 28 3 75t3 66q0 46 -1 77.5t-1 64.5q0 79 51 127q43 43 127 43q74 -3 119 -51q54 -51 51 -119q-4 -58 -4 -148q0 -20 1 -68.5
t1 -76.5q-1 -24 -2 -73.5t-2 -74.5q0 -24 5 -73t5 -74t-5 -73.5t-5 -71.5q0 -26 3 -75.5t3 -72.5q0 -29 -3 -78t-3 -69q-1 -47 5.5 -80t6.5 -66q0 -101 54 -155q58 -58 153 -58q38 0 76 -2t76 -2t75.5 1t75.5 1t76 1t76 1t75.5 -5t75.5 -5h152z" />
    <glyph glyph-name="M" unicode="M" horiz-adv-x="2217" 
d="M4215 -104q36 -3 50.5 -5t37.5 -11t37 -25q55 -66 49 -131q-6 -68 -72 -123q-45 -40 -131 -33q-24 2 -70 -3.5t-67 -4.5q-22 1 -67.5 9.5t-69.5 8.5q-25 0 -71 -10.5t-67 -11.5q-22 -2 -69 7.5t-70 6.5q-25 -2 -69 -22.5t-64 -24.5q-26 -4 -71.5 1t-63.5 1
q-26 -6 -68 -20.5t-59 -18.5q-5 -2 -56.5 -20t-84.5 -25q-9 -2 -146 -21q-14 -1 -67 -8.5t-88 -9.5q-10 -1 -67 -8.5t-89 -7.5q-132 0 -176 6q-27 2 -72 18t-59 19q-20 4 -66.5 5t-68.5 9q-65 24 -125 55q-51 29 -113 80q-16 12 -31.5 28t-34.5 38t-28 32q-23 28 -68 107
q-17 27 -49 117q-5 12 -20 47t-23.5 60t-13.5 50q-4 32 -8 84q-2 14 -15 45.5t-14 49.5q-1 36 0.5 102.5t1.5 87.5q1 22 1 47t-0.5 55.5t-0.5 46.5q0 25 4 75t4 75q0 29 4 89t4 89q0 28 -8 87t-8 89q0 69 -51 86q-18 2 -28 3t-25 -8t-22.5 -15t-21.5 -19
q-14 -15 -49.5 -33.5t-48.5 -31.5q-23 -23 -63 -77t-64 -77q-59 -63 -94 -90q-57 -43 -119 -43q-10 1 -19.5 3.5t-20 8.5t-17 10t-18.5 13t-17 12q-8 6 -31 9t-30 10q-18 18 -43.5 63t-42.5 62q-20 19 -69.5 49t-70.5 51q-11 10 -26.5 33.5t-22.5 31.5q-44 41 -102 17
q-70 -28 -70 -86q0 -37 12.5 -74t12.5 -74t-9.5 -73.5t-9.5 -73.5q0 -38 -1 -75.5t-1 -74.5v-147q0 -37 10.5 -74.5t10.5 -75.5q0 -37 -11.5 -73.5t-11.5 -73.5q0 -90 -35 -127q-56 -56 -125 -59q-62 -3 -129 61q-41 41 -41 127v154q0 38 -1 76t-1 77q0 38 -3 76t-3 76
q0 39 -3 77t-3 76t3 76.5t3 77.5q0 38 2 76.5t2 77.5q0 38 2 75.5t2 75.5q0 39 -11 77.5t-11 76.5t11 76t11 77q0 38 -11 76.5t-11 77.5q0 22 13 45.5t24 35.5t35 36q22 21 35 31.5t35.5 20.5t45.5 9q91 -3 138 -65q39 -50 102 -113q15 -15 56 -46t61 -50q19 -19 52 -58.5
t50 -56.5q21 -20 52 -61t46 -56q33 -33 61.5 -54t53.5 -46q38 -36 85.5 -39.5t82.5 21.5q27 18 62 71.5t47 65.5q16 17 59 40t59 40q18 17 46 54.5t44 53.5q16 17 45 55t46 54q16 16 67 67.5t80 77.5q39 37 137 33q85 0 127 -39q39 -36 39 -125q0 -6 -3 -18.5t-3 -18.5
q0 -26 4 -75.5t4 -73.5q0 -26 2 -76t2 -76q0 -24 4 -74t4 -75q0 -145 2 -217q0 -31 -4.5 -86t-5.5 -76q0 -29 -6.5 -84t-7.5 -78q0 -26 15.5 -80t15.5 -82q0 -25 -11 -79t-10 -83q1 -28 13 -81t14 -78q7 -95 26 -152q24 -65 80 -131q69 -79 152 -113q3 -1 19.5 -9t21.5 -10
t20.5 -9t23 -9.5t22 -8t25 -8t23.5 -6.5t26 -6t26 -3q26 -2 73.5 3t65.5 5q26 0 72 5.5t63 6.5q28 2 73.5 9.5t61.5 9.5q28 4 69 12.5t46 9.5q23 5 63 16t48 13q20 6 71 5.5t84 6.5q17 4 65.5 23.5t80.5 25.5q29 4 82.5 8.5t72.5 6.5q24 3 156 8q128 10 156 10
q23 1 75.5 12.5t79.5 10.5q28 -1 79.5 -20.5t74.5 -22.5z" />
    <glyph glyph-name="N" unicode="N" horiz-adv-x="2252" 
d="M3703 2443q59 -25 88 -98q29 -89 8 -137q-21 -46 -69 -74.5t-99 -28.5q-11 0 -22 5t-24 13t-21 11q-27 12 -82 21.5t-76 17.5q-24 8 -71.5 37.5t-74.5 36.5q-30 8 -86.5 11.5t-74.5 6.5q-16 3 -64 14t-74 13q-109 9 -139 8q-94 0 -139 -4q-24 -3 -49.5 -10t-56 -17.5
t-46.5 -15.5q-55 -13 -145 -53q-14 -7 -27.5 -14.5t-28 -18.5t-23 -17.5t-25.5 -20t-23 -18.5t-21 -16t-21.5 -16.5t-19 -15.5t-20 -17t-17 -17t-16.5 -20t-29 -34t-35 -43t-20 -38q-8 -21 -12.5 -45.5t-8 -56.5t-5.5 -47q-3 -17 -9.5 -46.5t-10.5 -54.5t-5 -47
q-1 -27 4.5 -77.5t5.5 -73.5q0 -24 6.5 -74t6.5 -74t1 -71t1 -70q0 -22 1 -68.5t1 -70.5t-2 -70t-2 -69q0 -24 -3.5 -71t-3.5 -69q0 -24 2.5 -70.5t2.5 -68.5q0 -24 -7.5 -73t-7.5 -74q0 -24 -4 -72.5t-4 -73.5t8 -74t8 -73q0 -72 -51 -123q-51 -54 -123 -57q-66 0 -116 40
q-3 3 -7 13t-8 14q-25 26 -55 49t-57 51q-26 27 -52 55t-53 54q-25 26 -47 58t-49 59q-26 28 -56 52.5t-55 49.5q-27 26 -57.5 48.5t-56.5 49.5t-47.5 60t-47.5 61q-22 23 -47.5 51.5t-54.5 57.5l-106 106q-27 26 -52 55t-51 56q-28 29 -57.5 53t-54.5 49q-24 25 -57.5 35
t-61.5 -2q-27 -11 -49.5 -42t-22.5 -64q0 -37 14.5 -74t14.5 -74q0 -38 -7.5 -75t-7.5 -74t4.5 -74t4.5 -74q0 -38 -10.5 -75t-10.5 -74t9.5 -74t9.5 -74t-1.5 -74t-1.5 -75q0 -73 -51 -127q-37 -35 -129 -31q-80 0 -119 39q-38 38 -38 123q0 38 -2.5 75.5t-2.5 75.5
q0 39 -6 77.5t-6 76.5q0 39 -6 77.5t-6 76.5t7 76t7 77q0 38 -5 76.5t-5 77.5q0 38 -1 75.5t-1 75.5q0 39 4 77.5t4 76.5q0 39 -3 77t-3 76t9 76.5t9 77.5q0 38 -5 76.5t-5 77.5q0 60 58 118q46 49 118 52q20 0 68 -21q65 -12 94 -41q25 -26 54 -47.5t53 -46.5
q22 -22 49 -46.5t53 -51.5q24 -26 49.5 -51t50.5 -50q24 -25 41 -57.5t43 -58.5q25 -26 55 -46t54 -44q26 -26 48 -54.5t46 -52.5q27 -27 49 -56t45 -53q27 -28 55 -51.5t50 -44.5l98 -102q25 -26 56.5 -45.5t56.5 -44.5q50 -50 116 -23q78 30 78 98q0 22 -4 66t-4 66
q0 21 5 64.5t5 66.5q0 21 -6 64.5t-6 66.5q0 21 9 64.5t9 66.5t2.5 69t2.5 68q0 24 -11.5 70.5t-11.5 68.5q0 28 17 77.5t20 66.5q4 17 8.5 67.5t13.5 75.5q8 28 37.5 73t34.5 54q9 17 25 65t32 70q18 24 62 59t53 44q11 10 46.5 51.5t60.5 58.5q18 13 40.5 24t52 24
t44.5 20q65 35 139 59q13 4 44 16t54.5 19.5t46.5 11.5q27 7 80 7.5t72 2.5q64 7 170 7q11 0 74 5t98 3q86 -6 170 -21q94 -16 141 -28q25 -6 71 -23t64 -22q20 -6 68 -16t72 -19q25 -9 70 -33t59 -31z" />
    <glyph glyph-name="O" unicode="O" horiz-adv-x="2117" 
d="M1921 1296q7 -17 12.5 -37.5t10.5 -45t8 -37.5q1 -4 13.5 -50.5t16.5 -70.5q13 -89 13 -123q0 -26 -6 -73t-7 -52q-9 -64 -24 -121q-14 -59 -39 -119q-30 -67 -92 -153q-49 -77 -113 -140l-21 -21l-22.5 -22.5t-20.5 -19.5t-23 -21t-21.5 -18t-24.5 -18q-40 -27 -162 -78
q-88 -36 -116 -43q-66 -17 -121 -25t-125 -8q-18 0 -38.5 2t-45.5 5.5t-39 4.5q-12 2 -56 5.5t-67 9.5q-66 16 -119 39q-69 29 -157 88q-49 35 -134 120q-65 64 -114 138q-66 101 -88 155q-30 72 -41 119q-10 33 -23 121q-8 55 -8 125q0 10 -2.5 62.5t0.5 62.5
q3 23 17.5 64.5t17.5 54.5q11 45 41 118q41 97 84 158q61 90 112 139q65 65 138 117q101 66 157 90q17 7 36 12.5t46.5 12t36.5 8.5q77 23 123 27q96 14 123 14q23 0 125 -10q18 -3 38 -7.5t46.5 -11.5t38.5 -10q56 -14 116 -39q44 -20 154 -94q11 -7 46.5 -29.5t58.5 -39.5
t42 -36t35.5 -40.5t40 -58.5t29.5 -46q7 -11 31 -46t38.5 -59t24.5 -49zM1468 520q56 56 95 121q51 87 65 137q19 78 19 154q0 57 -23 151q-24 83 -59 142q-42 72 -90 123q-49 49 -123 92q-13 8 -26.5 14t-30.5 11.5t-27.5 9t-32 9t-29.5 7.5t-34.5 9t-39.5 10t-34.5 6.5
t-40.5 3.5q-66 0 -152 -21q-62 -15 -141 -59q-53 -31 -119 -97q-51 -48 -94 -120q-24 -42 -53 -142q-27 -110 -27 -149q0 -72 23 -152q15 -60 63 -137q41 -74 90 -123q63 -63 119 -94q61 -38 141 -57q104 -31 150 -31q19 0 40 4t36 8t39 12t36 11q6 1 35.5 8t41 10.5
t32.5 11t37 17.5q12 7 23.5 15.5t25 21t20.5 19t24 23.5z" />
    <glyph glyph-name="P" unicode="P" horiz-adv-x="2138" 
d="M2013 1356q4 -50 -12 -148q-16 -102 -35 -145q-23 -53 -88 -121q-71 -79 -111 -104q-47 -27 -141 -58q-114 -34 -145 -39q-102 -16 -152 -18q-25 -1 -71.5 3.5t-67.5 4.5l-69 -1q-69 0 -70 1q-23 0 -69 -4t-69 -4t-70 3t-71 3q-25 0 -72.5 -1t-70.5 -1q-68 0 -107 -39
q-39 -36 -39 -108v-134q0 -34 -5 -67.5t-5 -67.5q0 -33 1 -66t1 -67q0 -77 -49 -123q-54 -57 -123 -57q-60 0 -119 63q-61 61 -61 119v154q0 38 4 76t4 77q0 38 2 76.5t2 77.5q0 38 -6 76.5t-6 77.5q0 38 3 75.5t3 75.5q0 39 -2 77.5t-2 76.5q0 39 -1 77t-1 76q0 39 7 77.5
t7 76.5q0 39 -6 77.5t-6 76.5q0 39 -1 77t-1 76q0 62 59 121q63 59 121 59q1 0 3 -1t3 -1q2 0 4.5 -1t3.5 -1h111q18 0 55.5 2t57.5 2h155q25 0 77 -4t79 -4q25 0 77 4t79 4h145q29 1 82 -3.5t65 -4.5t44.5 1t56.5 0.5t45 -3.5q46 -8 141 -37q53 -15 119 -47q72 -37 109 -65
q18 -15 32.5 -31.5t36 -46t25.5 -33.5q3 -4 16.5 -23t18.5 -26.5l15 -22.5t15.5 -27.5t10.5 -25.5q21 -51 28 -143zM1626 1174q22 24 31.5 58t7.5 57.5t-2 39.5q-8 75 -72 127q-66 55 -123 68q-27 6 -78.5 6.5t-64.5 1.5q-18 1 -50 2.5t-57.5 2.5t-48.5 1q-25 0 -77 1t-78 1
q-29 0 -86.5 -1t-85.5 -1t-86 -2t-86 -2q-80 0 -133 -53q-62 -62 -62 -133q0 -58 43 -131q40 -66 96 -97q73 -43 131 -43q33 0 66 3t66 3q34 0 67 -3t66 -3h133q33 0 65.5 1t65.5 1q13 0 65.5 -2.5t59.5 0.5q20 3 41.5 9t45 14.5t34.5 11.5q72 26 106 62z" />
    <glyph glyph-name="Q" unicode="Q" horiz-adv-x="2277" 
d="M4241 -193q21 -60 -10 -131q-22 -50 -98 -77q-20 -8 -65 -34t-72 -34q-68 -19 -148 -39q-122 -25 -147 -29q-75 -10 -146 -30q-21 -4 -71 -14t-76 -15q-95 -18 -148 -18q-16 0 -56 -2.5t-62 -1.5t-62 10.5t-57 11.5q-20 2 -65 -3t-68 -1q-23 3 -64.5 22t-60.5 23
q-24 6 -66 20t-59 19q-121 35 -125 37q-23 8 -84 22t-90 27q-35 15 -89 47.5t-71 40.5q-59 30 -129 90q-28 22 -117 107q-9 9 -33.5 35t-43 43t-37.5 32q-7 5 -63 44t-83 63q-22 21 -35.5 32t-33.5 22t-40 10t-42 -13q-13 -7 -47 -17t-43 -14q-13 -5 -50.5 -28t-60.5 -29
q-13 -3 -54.5 -18.5t-66.5 -18.5q-82 -8 -125 -8q-24 0 -65.5 14t-57.5 16q-4 0 -53 2t-72 9q-86 21 -120 35q-25 10 -48 24.5t-60.5 42.5t-43.5 33q-11 7 -46.5 29.5t-58.5 39.5t-42 35q-59 59 -115 142q-57 85 -90 157q-9 22 -11 66t-6 61q-2 7 -15 51t-17 68
q-2 18 -14.5 59.5t-12.5 63.5q0 72 8 127q2 23 23.5 63t25.5 54q6 23 43 114q44 96 84 156q45 70 111 139q14 14 39.5 42t46.5 48.5t43 36.5q78 53 158 86q72 30 118 43q22 6 66 8.5t59 4.5q82 8 123 8q16 0 60 7.5t67 4.5q22 -3 61 -23t56 -24q18 -4 36.5 -11t43 -18.5
t35.5 -15.5q100 -42 159 -80q11 -8 68 -42.5t82 -59.5t55 -82.5t39 -71.5q55 -82 88 -154q5 -11 15.5 -35.5t18 -42.5t11.5 -36q7 -24 11.5 -71t5.5 -52q1 -14 4.5 -38.5t5.5 -45t2 -39.5t-10 -121q-3 -20 1.5 -65t-1.5 -62q-6 -24 -26.5 -68.5t-22.5 -48.5
q-9 -20 -34.5 -51t-33.5 -47q-15 -30 -5.5 -63t34.5 -58q23 -19 54.5 -58.5t41.5 -49.5q18 -19 59.5 -46t57.5 -44q11 -11 45 -49t55 -56q6 -5 26.5 -23t30 -25.5t27 -19t33.5 -18.5q10 -5 57.5 -29.5t79.5 -39.5q23 -10 75.5 -24.5t71.5 -21.5q8 -3 60 -25t82 -30
q20 -5 68.5 -23.5t76.5 -23.5q26 -4 79.5 3t76.5 5q110 -15 145 -12q18 2 69 2t79 4q25 4 73.5 18.5t71.5 18.5q27 5 76 4.5t71 3.5q25 4 71.5 16.5t55.5 14.5q22 4 60 27.5t57 29.5q16 5 60 12.5t67 16.5q72 26 135 -2t90 -103zM1503 801q1 -1 9 -13q76 -115 92 -79
q6 14 25.5 49.5t30.5 62t15 53.5q7 67 -12 179q-5 30 -41 114q-3 8 -10 26.5t-11.5 29.5t-12 26t-15.5 27q-31 44 -98 104q-56 53 -115 86q-24 13 -75.5 18t-65.5 9q-101 27 -136 27q-16 0 -49 2t-58.5 1.5t-47.5 -5.5q-23 -5 -45.5 -16.5t-53 -30.5t-41.5 -25
q-7 -4 -33 -18t-37 -20.5t-29.5 -19.5t-31.5 -26q-19 -19 -40.5 -66.5t-28.5 -58.5q-50 -78 -64 -123q-32 -98 -35 -135q-4 -89 5 -143q3 -18 10.5 -37t19.5 -42t17 -36q2 -6 10 -27t11.5 -31t11.5 -25.5t16 -27.5q9 -12 25.5 -38.5t30.5 -45.5t30 -34q21 -18 71.5 -34.5
t61.5 -21.5q10 -5 31 -17t33 -18t29.5 -14t33.5 -12q15 -3 44 -11.5t52 -13t45 -4.5q15 0 33.5 2.5t45 7t38.5 6.5q10 1 41 3.5t49 7t29 14.5q13 13 22 34t1.5 56t-44.5 64q-26 20 -40 31.5t-29.5 33t-18.5 43.5q-9 68 51 135q51 58 121 64q67 3 127 -47z" />
    <glyph glyph-name="R" unicode="R" horiz-adv-x="2234" 
d="M3987 -209q19 -54 -12 -125q-32 -72 -88 -92q-28 -10 -81.5 -21t-71.5 -16q-16 -4 -69.5 -21.5t-82.5 -23.5q-23 -5 -48.5 -9t-58 -8t-49.5 -7q-24 -3 -75.5 -18t-79.5 -17q-29 -2 -83.5 2t-74.5 4q-21 0 -69.5 -5.5t-73.5 -4.5t-72.5 14.5t-69.5 15.5q-18 1 -67.5 1
t-75.5 5q-21 4 -73 11t-79 14q-22 6 -46 15.5t-52.5 21.5t-44.5 18q-11 4 -44.5 16t-56 21.5t-42.5 20.5q-29 16 -76.5 55t-61.5 49q-6 4 -55.5 35t-73.5 51q-97 78 -120 101q-79 80 -107 112q-32 38 -88 127q-15 23 -34.5 70.5t-31.5 68.5q-13 23 -43.5 64.5t-42.5 60.5
t-36.5 53.5t-36.5 53.5q-27 43 -64 112q-3 4 -14 21.5t-14.5 23t-12 17t-15 18t-13.5 11.5q-42 30 -53.5 34t-55.5 2q-37 -1 -72.5 6t-70.5 7t-71.5 -9t-74.5 -8q-37 0 -73 6t-70 7q-36 0 -71.5 -6.5t-71.5 -6.5q-58 0 -92.5 -38t-34.5 -97q0 -35 -5.5 -69t-5.5 -68
q0 -35 -1 -69.5t-1 -69.5t8.5 -70t8.5 -70q0 -61 -58 -127q-58 -58 -123 -61q-24 -1 -49 12t-36.5 23t-38.5 35q-48 48 -48 120q0 39 -12 77.5t-12 76.5q0 39 6 77.5t6 76.5v153q0 38 -5 76.5t-5 77.5v153q0 38 2 76.5t2 77.5q0 38 -3 76.5t-3 77.5q0 38 1 75.5t1 75.5
q0 39 12.5 77.5t12.5 76.5q0 39 -2.5 77t-2.5 76q0 51 39 99q5 6 15.5 22.5t19.5 27t21 15.5q41 15 102 15q22 0 66 -3.5t65 -3.5t65 8.5t66 8.5q25 0 74 -12.5t72 -12.5q24 0 73 5t74 5t74 1.5t73 1.5q22 0 69 3t69 3q27 1 77 -3.5t62 -5.5q16 -1 70.5 0.5t68.5 -2.5
q26 -3 70 -25.5t59 -27.5q15 -4 59.5 -11t65.5 -17q23 -12 56.5 -44.5t39.5 -37.5q60 -47 101 -103q10 -14 31.5 -35.5t37.5 -41t23 -40.5q27 -77 33 -145q2 -32 -9.5 -89.5t-11.5 -61.5q-12 -75 -47 -144q-25 -57 -86 -121q-8 -9 -16.5 -17t-20 -16.5t-18 -13.5
t-21.5 -14.5t-20 -12.5t-23.5 -13.5t-21.5 -12.5q-66 -36 -2 -154q16 -30 54.5 -74.5t45.5 -56.5q11 -19 34.5 -57t35.5 -57q8 -13 30.5 -54t36.5 -63q9 -14 33 -62.5t43 -70.5q41 -49 107 -111q6 -6 48.5 -44.5t67.5 -55.5q27 -19 133 -78q8 -3 28 -2t28 -2
q12 -5 44.5 -21.5t55 -26.5t45.5 -16q15 -5 48 -16.5t58.5 -19t49.5 -11.5q97 -15 160 -20q13 -3 80 -0.5t81 2.5q25 -1 72 8t66 10q56 2 139 13q19 2 66.5 3t72.5 7q24 4 67.5 24t63.5 25t69 6t72 10q2 1 19 7t21.5 7.5t19 6t21.5 5t18.5 1t20.5 -1.5t18 -6q41 -19 75 -115
zM1280 1081q15 0 42 -1t47.5 -1t37.5 2q26 3 65.5 22.5t51.5 22.5q43 15 96 68q46 52 39 145q-8 78 -64 123q-5 4 -22 18t-24.5 19.5t-21 14.5t-25.5 14t-25 8q-54 14 -144 18q-24 1 -71.5 5.5t-69.5 5.5q-22 0 -65 -2t-64 -2t-64 -9.5t-65 -9.5t-65 3t-64 3
q-23 0 -66.5 6.5t-64.5 6.5q-85 0 -137 -45q-44 -39 -52 -134q-1 -13 0.5 -26t6 -28t8 -24.5t11.5 -28.5t11 -26q28 -68 80 -106q24 -19 37.5 -28t37.5 -18.5t48 -9.5q7 2 19 5t48 8t72 4q21 0 68 -13.5t72 -13.5q25 -1 72 13t67 14q40 0 71.5 -11.5t65.5 -11.5z" />
    <glyph glyph-name="S" unicode="S" horiz-adv-x="2119" 
d="M1989 686q9 -27 6 -131q-3 -69 -27 -143q-25 -69 -67 -129q-60 -82 -115 -123q-57 -41 -150 -80q-84 -31 -163 -47q-20 -4 -168 -19q-6 0 -18 -1t-19 -1q-6 -1 -58 -7.5t-80 -6.5q-25 0 -73 7t-66 9q-26 1 -74 6.5t-63 6.5q-24 3 -69.5 8t-67.5 8q-12 2 -61.5 6t-75.5 10
q-24 4 -69 19t-65 20q-68 15 -135 33q-70 18 -104 76q-33 56 -14 129q17 68 75 104q59 35 129 17q27 -7 80 -14t76 -13q22 -4 75 -16.5t81 -16.5q9 -2 67 -14t88 -16q9 -1 127 -7q108 -10 127 -10q26 -1 69.5 5t57.5 7q105 10 133 15q95 16 131 31q88 32 113 71q29 40 29 88
q0 5 2 11l2 6q-4 4 -6 10q-24 93 -166 113q-67 11 -158 14q-28 2 -82 -1.5t-78 -2.5q-21 2 -70.5 7.5t-74.5 6.5q-25 2 -75 4t-73 4q-82 6 -147 15q-34 2 -85.5 12.5t-59.5 11.5q-7 1 -33.5 6t-34.5 7t-25.5 6.5t-28 8.5t-20.5 9q-49 24 -141 103q-2 2 -14 12.5t-15 13.5
t-13.5 12.5t-14.5 13.5t-12 12.5t-12.5 14.5t-10 13.5t-10.5 15.5q-45 66 -62 137q-13 53 -6 148q1 9 2.5 34.5t3 39t5 34t9.5 37.5q10 28 25 52t39.5 54t24.5 31q55 76 110 119q58 44 141 80q75 27 158 45q116 23 178 25q96 5 181 2q6 0 159 -6q21 -1 76 -1t84 -2
q29 -3 81 -15t75 -15q120 -17 157 -25q81 -15 154 -37q66 -20 104 -84q30 -62 9 -133q-20 -64 -86 -96q-62 -36 -127 -16q-25 8 -77 17t-61 11q-17 3 -63.5 16.5t-73.5 16.5q-24 3 -71 3.5t-68 2.5q-23 2 -70 5t-69 5q-22 1 -68.5 0t-71.5 0q-14 0 -58 3t-71 2
q-11 0 -129 -17q-12 -2 -40.5 -6t-49 -8.5t-37.5 -11.5q-51 -22 -96 -82q-57 -76 -41 -142q18 -74 119 -129q4 -1 22.5 -2.5t73.5 -5.5t123 -10q12 -1 55 -7.5t68 -7.5q39 -4 125 -8q22 -1 63.5 -7t61.5 -7l151 -6q17 -1 77 0.5t77 -2.5q22 -3 46 -9.5t55 -17t44 -14.5
q87 -25 142 -58q74 -45 127 -116q69 -93 84 -156zM1657 582l2 -7z" />
    <glyph glyph-name="T" unicode="T" horiz-adv-x="2136" 
d="M1837 1880q73 0 123 -47q56 -59 53 -123q0 -76 -51 -127q-56 -53 -127 -53h-143q-36 0 -72 6t-72 6t-71.5 -5t-71.5 -5q-66 0 -111 -45q-57 -57 -57 -111q0 -38 1 -75t1 -74q0 -38 1 -76t1 -76q0 -37 -2 -74t-2 -75t5 -75.5t5 -74.5q0 -38 -1 -75.5t-1 -75.5v-150v-151
q0 -37 -1 -74.5t-1 -75.5q0 -69 -51 -123q-57 -54 -123 -51q-67 0 -119 55q-59 63 -59 121q0 38 4 76.5t4 77.5q0 38 2 75.5t2 75.5t-1 76.5t-1 77.5q0 38 -4 75.5t-4 75.5t2 76.5t2 77.5q0 38 1 76t1 76v153q0 38 1 76t1 76q0 57 -42.5 95t-102.5 38q-37 0 -74.5 3t-75.5 3
t-75.5 4t-75.5 4t-75.5 -5t-74.5 -5q-83 0 -129 49q-53 50 -53 129q0 56 61 121q59 55 123 55q38 0 76 1t76 1q39 0 77 -3t76 -3t76.5 3t77.5 3q38 0 76 -1t76 -1q39 0 77 1t76 1t76.5 -6t77.5 -6q38 0 76 2t77 2q38 0 76 4t76 4q39 0 77 1t76 1t76.5 -6t77.5 -6z" />
    <glyph glyph-name="U" unicode="U" horiz-adv-x="2267" 
d="M3688 2494q76 -32 99 -90q30 -77 2 -141q-21 -46 -70 -76t-100 -30q-31 0 -76 18q-69 32 -147 61q-24 8 -73.5 31.5t-76.5 30.5q-11 3 -48.5 13.5t-61.5 16t-48 9.5q-25 4 -72 -1t-67 -3q-24 2 -137 2q-54 0 -137 -11q-22 -3 -80.5 1t-77.5 -3q-87 -23 -150 -51
q-44 -21 -133 -88q-18 -15 -34 -34t-36.5 -48t-27.5 -39q-1 -2 -12 -15.5t-14 -17.5l-12 -16t-12.5 -18t-10 -17t-11 -20t-8.5 -19q-41 -114 -45 -141q-3 -27 1.5 -79t4.5 -70q1 -7 -10 -45q0 -21 2 -64.5t2 -66.5q0 -21 6 -65t6 -65q0 -25 -13 -77.5t-13 -79.5
q2 -51 2 -156l1 -79q2 -79 -1 -79q-2 -15 -4.5 -70t-9.5 -85q-6 -30 -30 -86t-26 -62q-4 -10 -11.5 -30t-12 -31.5t-12 -28t-15.5 -30.5q-7 -14 -17.5 -29.5t-17.5 -24.5t-21.5 -28t-19.5 -25q-11 -13 -41.5 -61t-52.5 -68q-23 -20 -74.5 -48.5t-62.5 -35.5
q-67 -42 -135 -68q-89 -38 -146 -49q-29 -7 -86 -8t-65 -2q-101 -4 -152 2q-54 4 -147 27q-55 15 -144 53q-13 6 -64.5 23.5t-76.5 33.5q-75 54 -125 99q-28 28 -98 125q-56 72 -74 106q-44 86 -57 119q-24 59 -41 137q-9 41 -17 143q-2 24 -2 142q-1 26 2.5 74.5t3.5 68.5
q0 23 -2 68t-2 67t-2 67t-2 68t-2 69t-2 69t-6 68t-6 67q0 35 14.5 70t38.5 59q44 47 127 51q75 3 131 -53q55 -49 55 -129q0 -20 3.5 -57.5t3.5 -55.5q0 -20 -1 -57.5t-1 -55.5q0 -28 -2.5 -86t-2.5 -86t4.5 -86t4.5 -86q0 -16 -1.5 -63.5t-0.5 -73.5q0 -77 8 -137
q2 -14 4 -43t5.5 -51.5t10.5 -42.5q43 -109 86 -162q56 -74 135 -125q69 -48 154 -74q24 -7 50.5 -9.5t66.5 -2.5h53q113 -4 168 10q71 19 152 72q60 35 112 90q54 57 86 117q42 79 58 147q9 38 18 158q3 80 0 160q0 26 -2 78t-2 79q0 24 7 75t7 77q-1 19 -8 70.5t-6 78.5
q0 29 7.5 82t8.5 70q5 135 8 152q2 12 7.5 67t13.5 82q17 58 59 141q12 26 50 68t45 51q9 12 38 58.5t50 66.5q50 50 118 96q76 54 129 82q25 11 77.5 24.5t68.5 18.5q12 4 62.5 25.5t80.5 27.5q14 3 150 19q25 3 54 3t64 -1.5t54 -1.5q22 0 81 6.5t91 3.5q87 -6 170 -18
q25 -4 71 -20t68 -21q26 -7 75 -23.5t60 -19.5q18 -6 66 -15.5t73 -19.5q26 -9 71 -33.5t58 -30.5z" />
    <glyph glyph-name="V" unicode="V" horiz-adv-x="2283" 
d="M3684 2359q72 -42 88 -100q17 -71 -18 -133q-46 -80 -154 -80q-5 0 -17 -0.5t-18.5 0t-16.5 1t-19 3t-17 6.5q-58 35 -121 62q-112 46 -129 51q-11 3 -58.5 18.5t-74.5 18.5q-72 10 -137 10q-25 1 -69 -13t-62 -16q-62 -5 -129 -18q-95 -22 -127 -33q-21 -7 -119 -55
q-11 -5 -36.5 -15.5t-44 -20t-35.5 -20.5q-72 -46 -123 -92q-17 -16 -34 -34.5t-37 -42t-30 -35.5q-14 -17 -52 -53.5t-52 -59.5q-18 -28 -35.5 -81.5t-21.5 -61.5q-11 -22 -23 -37q-17 -31 -38 -62t-38 -65q-17 -35 -39.5 -65t-38.5 -62q-16 -33 -30 -66.5t-31 -66.5
q-13 -26 -29.5 -61t-34.5 -72q-17 -34 -26 -71t-25 -71q-16 -32 -41.5 -60t-42.5 -63l-65 -131q-17 -34 -25 -70.5t-24 -70.5q-16 -33 -30.5 -66.5t-31.5 -66.5q-17 -34 -45.5 -61t-44.5 -60t-24 -69.5t-25 -69.5q-23 -46 -100 -74q-63 -25 -123 -4q-61 22 -90 82
q-37 43 -76 123q-8 17 -33 57.5t-37 65.5q-9 19 -21 66.5t-24 70.5q-9 19 -34 60.5t-36 64.5q-13 24 -30 70t-25 63q-11 22 -34 62.5t-35 62.5q-11 23 -40 62t-40 59q-10 22 -20.5 70t-20.5 69q-10 19 -35.5 60t-36.5 63q-12 23 -31.5 66.5t-29.5 62.5q-12 26 -42.5 64.5
t-37.5 54.5l-66 129q-25 55 2 139q26 77 84 108q46 22 133 -8q29 -10 45.5 -16t37.5 -21.5t32 -35.5q17 -33 25 -70t24 -70t42 -60.5t42 -60.5t30.5 -66.5t31.5 -66.5t28 -68.5t27 -68.5q16 -35 35 -67t34 -62q16 -33 26.5 -68.5t27.5 -68.5q16 -33 43 -60.5t43 -60.5
t26 -68.5t27 -68.5q28 -54 90 -54t88 54q17 33 27 68.5t26 68.5q17 33 34.5 65.5t33.5 65.5q17 33 41.5 61.5t40.5 61.5q17 33 32 65.5t31 65.5q17 33 31.5 66.5t30.5 66.5q17 33 36 63.5t36 63.5t30 67.5t29 67.5t27 68t28 68q4 7 17.5 17.5t15.5 12.5q24 47 74 121
q3 5 31.5 49.5t46.5 67.5q17 19 54 49t52 45q53 53 102 94q30 26 113 84q80 54 111 70q45 23 118 53q14 6 54 29t65 30q10 3 55 18.5t70 20.5q32 7 87 6t87 1q19 2 79 14.5t93 11.5q36 0 146 -14q87 -11 143 -23q25 -6 68.5 -28.5t64.5 -28.5q28 -8 75.5 -29.5t57.5 -25.5
q11 -5 59 -24t72 -34z" />
    <glyph glyph-name="W" unicode="W" horiz-adv-x="2254" 
d="M3715 2392q82 -44 94 -94q6 -9 3 -26l-4.5 -25.5t-9.5 -25.5t-13 -25.5t-15 -24.5q-25 -42 -48 -65t-54 -27q-53 -9 -141 30q-29 13 -83 33.5t-69 26.5t-67.5 31t-81.5 34q-92 29 -156 41q-30 6 -80 5.5t-82 0.5q-15 0 -60 5t-73 4q-61 0 -131 -6q-17 -2 -66.5 -1
t-66.5 -4q-78 -16 -113 -26q-66 -25 -104 -47q-73 -37 -99 -60q-31 -27 -75 -86q-38 -50 -62 -106q-17 -40 -37 -117q-14 -68 -14 -119q0 -21 4 -61.5t4 -59.5q0 -22 3 -64.5t3 -62.5q0 -22 -9 -65t-9 -64q0 -25 6 -75t6 -74q0 -26 4 -76t4 -74q0 -25 -1 -75t-1 -76
q0 -24 -4 -74t-4 -76q0 -25 -5 -75t-5 -74q0 -22 5 -68t5 -69t-1 -68t-1 -68q0 -24 7 -69.5t7 -67.5q0 -71 -79 -131q-84 -68 -148 -51q-18 4 -32 17.5t-28 33.5t-24 29q-55 25 -112 80q-11 11 -99 94q-17 16 -41.5 56.5t-40.5 56.5q-18 17 -48.5 50.5t-45.5 47.5
q-28 28 -57 43t-53 39q-67 67 -144 67q-75 0 -141 -69q-24 -25 -56 -42.5t-57 -41.5q-24 -25 -39.5 -59t-40.5 -58q-24 -25 -52.5 -45.5t-53.5 -44.5t-47 -51t-47 -51q-25 -25 -48 -52t-47 -51q-54 -54 -133 -51q-13 0 -25 3.5t-25.5 13t-20.5 15t-23 20t-20 18.5
q-62 58 -62 112v154q0 21 6 72t6 81q0 23 -11 75t-11 79q0 24 11 75.5t11 78.5q0 25 -12 76t-12 77t9 77t9 77q0 27 -7 78t-7 75q0 27 2 79t2 75q0 30 5 81.5t5 72.5q0 49 -3 82.5t-3 70.5q0 66 51 117q46 43 121 43q35 0 49.5 -0.5t41.5 -7.5t42 -21q21 -18 27 -49.5
t6 -81.5q14 -63 14 -155q0 -21 1 -73.5t1 -82.5q0 -25 -7 -77t-7 -79t-3 -79t-3 -76q0 -30 3 -82.5t3 -73.5q0 -48 6 -83.5t6 -72.5q0 -34 24 -58t53.5 -24.5t56.5 21.5q26 25 76 77.5t75 78.5q15 15 55 51.5t60 58.5q6 6 24 24.5t26 26t23.5 20.5t30 20.5t31.5 13.5
q30 9 46.5 13t39.5 3.5t41 -8.5q55 -27 106 -78q16 -16 42.5 -52t41.5 -50q15 -15 32 -31t38 -35.5t33 -30.5q16 -17 49.5 -48.5t50.5 -47.5q24 -23 57 -23t57.5 20.5t24.5 53.5q0 39 -6 78t-6 78t6 78t6 78q0 38 -10 76t-10 77t3 78t3 78q0 36 6.5 74.5t5.5 78.5
q-4 14 -4 43q-11 126 -10 144q2 18 -1 72.5t3 72.5q4 26 28 70t29 61q23 64 58 127q6 14 17 42t21 49.5t23 37.5q18 23 60.5 53t54.5 41q79 74 113 97q41 27 131 63q17 8 61 36.5t70 35.5q27 8 79 9.5t70 4.5q21 3 70.5 15t75.5 14q47 4 147 8q34 0 87 -5.5t63 -6.5
q21 -1 155 -21q65 -7 156 -28q19 -5 74 -11t84 -16q40 -13 165 -74q36 -16 156 -94z" />
    <glyph glyph-name="X" unicode="X" horiz-adv-x="2131" 
d="M1962 297q47 -47 47 -125t-47 -125q-43 -43 -125 -43q-72 0 -119 47q-29 29 -56 58.5t-54 56.5q-27 26 -59.5 50t-61.5 54q-29 28 -54 60.5t-51 58.5q-29 29 -61 53.5t-59 51.5q-28 28 -54 58.5t-55 57.5q-34 35 -81 33.5t-83 -35.5q-30 -31 -59.5 -59t-52.5 -51
q-28 -27 -55.5 -57t-55.5 -58q-29 -29 -59.5 -55t-57.5 -52l-110 -114q-25 -25 -52 -55.5t-57 -59.5q-46 -49 -125 -49q-83 0 -127 47q-51 51 -51 127q0 60 59 119q26 27 51 54t52 54t50 56.5t48 54.5q27 27 57.5 50t55.5 48q27 27 54.5 53t53.5 52q25 26 46.5 57t47.5 57
q52 52 52 111q0 73 -43 119q-25 24 -55 47t-58 51q-26 27 -51 55t-51 54q-27 26 -56 50.5t-55 51.5q-23 24 -46.5 54t-51.5 57q-27 27 -56 51.5t-55 50.5q-53 56 -53 127q0 63 59 119q51 51 121 51q81 0 127 -43q17 -18 41.5 -46t52.5 -54q25 -24 49 -49l48 -50
q24 -24 46.5 -49.5t47.5 -50.5q26 -26 52.5 -48t49.5 -44q24 -24 47.5 -49t48.5 -50t49 -50.5t48 -49.5q25 -25 62 -26t63 24q47 49 96 98q25 24 44.5 53.5t43.5 53.5q49 47 98 96q25 26 51 50t48 46q27 27 50.5 53.5t43.5 47.5q25 24 51.5 46.5t50.5 45.5q48 51 125 51
t127 -47q43 -46 43 -127q0 -84 -43 -127q-26 -27 -52.5 -54.5t-53.5 -53.5q-26 -27 -55 -52t-56 -51q-26 -26 -55 -49.5t-56 -50.5q-20 -21 -47 -50t-57 -59q-26 -26 -53 -53.5t-54 -54.5q-39 -39 -39 -113q0 -78 39 -117l107 -106q28 -28 58 -51.5t55 -47.5
q26 -26 53.5 -51.5t54.5 -52.5q26 -26 47.5 -58t48.5 -59t57 -50t56 -50z" />
    <glyph glyph-name="Y" unicode="Y" horiz-adv-x="2320" 
d="M3521 2396q33 -9 48 -13.5t37 -18.5t33 -33q28 -55 2 -138q-21 -78 -55 -100q-6 -5 -13 -8.5t-16 -5.5t-14.5 -3.5t-17.5 -2t-16 -0.5h-18h-16q-7 0 -15 2t-17.5 5.5t-14.5 4.5q-44 13 -161 31q-55 8 -166 8q-32 1 -91 -6.5t-73 -8.5q-17 -2 -64.5 -4t-70.5 -8
q-98 -20 -136 -33q-23 -8 -124 -57q-22 -9 -121 -63q-10 -5 -56.5 -27.5t-70.5 -38.5q-22 -14 -57.5 -47.5t-49.5 -44.5q-4 -3 -48.5 -32.5t-65.5 -49.5q-16 -14 -31.5 -30.5t-35.5 -38.5l-30 -33q-21 -37 -67 -86q-14 -15 -49.5 -45.5t-51.5 -49.5q-16 -18 -49 -49t-47 -47
q-14 -15 -42.5 -51.5t-45.5 -54.5l-92 -103q-15 -18 -42.5 -54.5t-43.5 -53.5t-32 -38t-35.5 -48t-30.5 -41q-54 -71 -78 -138q-34 -88 -39 -122q-1 -7 -8 -57t-6 -75q0 -24 9.5 -67.5t10.5 -63.5q1 -25 -7 -69.5t-9 -63.5q0 -4 0.5 -30t0 -35t-2.5 -28.5t-7.5 -33.5
t-13.5 -26q-23 -34 -65 -54t-86 -18q-78 3 -127 92q-40 73 -43 103q-10 117 -9 139q4 94 4 139q1 17 8 65.5t5 73.5q-6 74 -33 138q-29 86 -68 137q-16 23 -55 59t-51 49q-18 21 -50.5 60.5t-37.5 46.5q-15 17 -47 51t-47 51q-16 18 -50 50t-49 49t-40 56t-40 56t-50 49
t-50 49q-67 78 -90 146q-8 16 -3 41.5t10.5 39t17.5 36.5q1 2 6.5 16.5t7.5 19t8 16.5t10 17.5t10 13.5t12.5 13t14.5 8q56 24 129 -4q29 -13 60 -39t45.5 -43.5t46.5 -56.5q19 -22 49.5 -66t44.5 -61l104 -121q17 -19 60 -52.5t61 -54.5q90 -107 101 -120q14 -17 20.5 -25
t19.5 -19t27 -18q63 -31 137 14q45 27 113 103q16 18 54.5 48.5t54.5 49.5q14 16 49.5 51.5t52.5 55.5q16 18 40.5 61t41.5 62q16 19 50.5 53t51.5 53q2 2 4 7t4 7q20 23 62 59.5t55 49.5q15 15 50 55.5t57 59.5q12 10 53.5 48t65.5 56q19 14 41 29t48.5 32t41.5 27
q25 15 74 36t69 32q29 14 121 63q15 6 56.5 27t66.5 31q17 6 59 28t68 29q24 7 73 15.5t62 11.5q25 5 73.5 6t63.5 2q68 8 156 8q78 0 157 -6q23 -2 48 -6.5t58 -12t48 -10.5q35 -7 152 -39z" />
    <glyph glyph-name="Z" unicode="Z" horiz-adv-x="2131" 
d="M1829 360q37 -6 74 -22q46 -22 76 -66.5t30 -93.5q0 -56 -63 -119q-59 -55 -119 -55q-21 0 -60.5 -1t-58.5 -1q-21 0 -60.5 -2t-58.5 -2q-25 0 -74 5t-73 5q-14 -1 -66 -4.5t-80 -3.5h-145h-145q-25 0 -74 2t-72 2q-24 0 -73 -1t-74 -1q-29 -1 -88.5 -5t-89.5 -5
q-40 -1 -59.5 -0.5t-59.5 3t-60 3.5q-100 7 -157 41q-74 46 -74 135q0 48 21.5 84.5t62.5 79.5q48 46 94 94q17 17 51 44.5t49 41.5q16 16 41.5 52.5t40.5 52.5t49 44.5t50 43.5q23 23 73 77q4 3 3.5 7t-5.5 6q-49 20 -75.5 64.5t-26.5 101.5q0 103 61 143q6 4 13.5 7
t14 5.5t16 4t15 3t17 2.5t16 1.5t18 1.5t17 1t18 0.5t17.5 0.5q8 0 72 3t92 3q72 0 115 43l16 20q21 20 65 58t64 59q21 20 60 63t59 64q23 25 10 59.5t-47 34.5q-29 -1 -86.5 -5t-85.5 -5q-27 0 -84 1t-86 1q-28 0 -85 -3t-85 -3q-20 0 -66 4.5t-71 3.5q-23 0 -68 -1
t-67 -1q-91 0 -136 2q-114 4 -163 31q-76 44 -76 139q0 90 61 135q58 43 148 43q24 0 73.5 -4t75.5 -4q25 0 74 2t74 2q26 0 75.5 2t73.5 2q23 0 70.5 1t71.5 1q22 0 68.5 -4t70.5 -4q23 0 70 2t71 2q22 0 68.5 3t70.5 3q23 0 71 -6t71 -6q21 0 63 6t62 6q22 0 64.5 -2
t62.5 -2q104 4 151 -10q75 -23 103 -104q19 -53 4 -107q-6 -20 -15.5 -39t-26 -39t-26.5 -31.5t-33.5 -35l-29.5 -29.5q-19 -19 -58 -56t-59 -57q-81 -80 -107 -108q-27 -26 -56.5 -51t-55.5 -52q-9 -9 -3.5 -23t17.5 -14q59 -2 119 -2q68 0 119 -51q51 -54 51 -119
q-3 -75 -51 -120q-52 -52 -119 -52l-2 2q-35 0 -70.5 -1t-71.5 -1q-35 0 -70 -1t-71 -1q-35 0 -70 5.5t-71 5.5q-74 0 -135 -64q-23 -24 -45.5 -48.5t-46.5 -47.5q-24 -25 -49 -48t-46 -44q-53 -56 -26 -123q13 -32 41.5 -54t64.5 -22q3 0 8.5 2t8.5 2h133q23 0 67 4t66 4
t66 -4t67 -4q21 0 62 5t61 5q19 0 60 -5.5t63 -4.5q21 0 83 7.5t95 4.5z" />
    <glyph glyph-name="bracketleft" unicode="[" horiz-adv-x="952" 
d="M305 2091q42 0 84.5 -3t85.5 -3q42 0 84.5 -2t85.5 -2q86 0 125 -39q59 -55 59 -125q0 -56 -65 -117q-55 -59 -117 -59q-26 0 -51 -3t-49 -3q-29 0 -51.5 -16.5t-22.5 -43.5q0 -37 5 -73.5t5 -73.5t2 -74t2 -74t-7 -73.5t-7 -73.5q0 -36 5 -72.5t5 -73.5v-147
q0 -37 1 -73.5t1 -73.5t-5 -74t-5 -74v-145q0 -37 3 -74t3 -74q0 -52 34.5 -89.5t84.5 -37.5q12 0 23 4t22 4q67 0 123 -53q45 -42 45 -121q0 -88 -39 -127q-47 -47 -127 -47q-43 0 -86 -4t-86 -4q-42 0 -84.5 2t-85.5 2q-81 0 -127 49q-55 52 -55 127v144q0 36 2 71.5
t2 71.5q0 35 3 70t3 71v144q0 36 1 71.5t1 71.5t-3 71.5t-3 71.5t1 72t1 72q0 35 -3 70t-3 71t5 71.5t5 71.5t-3 72t-3 72t5 71.5t5 71.5t-1 72t-1 72t-3 71t-3 70q0 72 51 123q56 53 123 53z" />
    <glyph glyph-name="backslash" unicode="\" horiz-adv-x="1353" 
d="M1223 166q20 -50 -13 -135q-28 -63 -92 -90q-6 -2 -29 -14.5t-36 -12.5q-51 0 -95.5 33t-64.5 84q-20 46 -55 131q-13 33 -29.5 64.5t-30.5 64.5q-32 81 -55 133q-12 29 -23.5 63t-27.5 70q-13 33 -29 64.5t-29 64.5l-53 133q-13 33 -20.5 68.5t-20.5 68.5t-27 65.5
t-28 65.5q-15 33 -26.5 67t-26.5 67q-13 32 -31.5 63t-32.5 66q-35 85 -55 131q-13 33 -24 66.5t-25 66.5q-13 30 -31.5 61.5t-32.5 67.5q-14 33 -21 68t-20 69q-29 70 -6 129q26 69 94 96q69 28 135 2q64 -25 93 -98q14 -33 29.5 -64.5t29.5 -64.5q13 -34 20 -69t21 -68
q14 -35 32 -66t31 -63q13 -31 23 -65.5t25 -69.5q35 -84 55 -131q14 -34 33.5 -64.5t33.5 -62.5q21 -51 56 -131q14 -33 23 -68t22 -68l53 -133q11 -28 24 -62t29 -71q13 -33 24.5 -66.5t24.5 -66.5t31.5 -63.5t32.5 -63.5q14 -31 30 -63t31 -68z" />
    <glyph glyph-name="bracketright" unicode="]" horiz-adv-x="952" 
d="M647 2091q67 0 123 -53q51 -51 51 -123q0 -35 -3 -70t-3 -71t-1 -72t-1 -72t5 -71.5t5 -71.5t-3 -72t-3 -72t5 -71.5t5 -71.5t-3 -71t-3 -70q0 -36 1 -72t1 -72t-3 -71.5t-3 -71.5t1 -71.5t1 -71.5v-144q0 -36 3 -71t3 -70q0 -36 2 -71.5t2 -71.5v-144q0 -75 -55 -127
q-46 -49 -127 -49q-43 0 -85.5 -2t-84.5 -2q-43 0 -86 4t-86 4q-80 0 -127 47q-39 39 -39 127q0 79 45 121q56 53 123 53q11 0 22 -4t23 -4q50 0 84.5 37.5t34.5 89.5q0 37 3 74t3 74v145q0 37 -5 74t-5 74t1 73.5t1 73.5v147q0 37 5 73.5t5 72.5q0 37 -7 73.5t-7 73.5t2 74
t2 74t5 73.5t5 73.5q0 27 -22 43.5t-51 16.5q-24 0 -49.5 3t-51.5 3q-62 0 -117 59q-65 61 -65 117q0 70 59 125q39 39 125 39q43 0 85.5 2t84.5 2q43 0 85.5 3t84.5 3z" />
    <glyph glyph-name="asciicircum" unicode="^" horiz-adv-x="1226" 
d="M1036 1802q55 -38 66 -90q10 -47 -25 -108q-41 -66 -114 -66q-44 0 -76 18q-24 17 -54.5 39t-64.5 45q-32 21 -61.5 43.5t-55.5 40.5q-43 25 -86 -6l-112 -82q-28 -20 -58.5 -37t-58.5 -36q-39 -27 -76 -27q-69 0 -110 66q-35 50 -25 106q10 63 57 96q48 36 92 64
q16 11 46 34t45 35q123 85 137 95q34 23 55 32q67 20 150 -36q22 -14 59.5 -40.5t50.5 -35.5q65 -44 109 -76z" />
    <glyph glyph-name="underscore" unicode="_" horiz-adv-x="1654" 
d="M1362 -387q68 0 123 55q47 47 47 125q0 83 -45 125q-50 53 -125 53q-38 0 -76.5 -1t-77.5 -1q-38 0 -75.5 -4t-75.5 -4t-76.5 4t-77.5 4q-38 0 -75.5 1t-75.5 1t-76 -3t-76 -3q-39 0 -77.5 3t-76.5 3t-75.5 -1t-75.5 -1q-78 0 -127 -49q-45 -48 -45 -127t45 -127
q46 -43 127 -43q38 0 75.5 -5t75.5 -5t76.5 2t77.5 2q38 0 76 -1t76 -1h153h152q38 0 75.5 2t75.5 2q39 0 77.5 -3t76.5 -3z" />
    <glyph glyph-name="a" unicode="a" horiz-adv-x="2134" 
d="M1989 252q34 -74 14 -133q-22 -69 -90 -105q-30 -12 -80 -12q-48 0 -89.5 26.5t-64.5 71.5l-65 133q-18 36 -49.5 52t-94.5 24q-23 6 -67.5 2t-67.5 -4q-35 0 -69 3t-68 3h-137q-30 0 -47.5 -0.5t-40.5 -1.5t-49 -2q-34 0 -68 1t-68 1q-26 0 -52 5t-36 5.5t-49 -8.5
q-22 -8 -35 -13t-26 -15t-17 -13t-20.5 -22.5t-24.5 -28.5q-22 -24 -30 -39.5t-15.5 -39.5t-19.5 -48q-23 -44 -67.5 -70t-92.5 -26q-8 0 -15.5 1.5t-16 5t-14 6t-16 7.5t-14.5 7q-79 42 -96 94q-23 67 10 137l66 127q40 84 63 129q17 34 36 65t34 60q4 8 61 129
q25 47 64 127q15 29 35.5 60.5t36.5 64.5q18 34 33 68t28 61q16 31 30 64t31 65q14 28 22.5 44.5t18.5 38t23 46.5q58 110 65 125q17 33 31.5 65.5t30.5 65.5q18 35 33.5 68.5t27.5 58.5q38 72 117 92q59 18 123 -6q60 -26 88 -86q10 -21 27.5 -64t27.5 -63t34 -60t34 -61
t27 -65t26 -64q9 -19 34.5 -58t35.5 -61q1 -1 61 -131q31 -57 64 -129q57 -107 67 -129l64 -129q12 -23 27 -69.5t24 -65.5q11 -21 38.5 -61.5t39.5 -61.5q9 -18 24.5 -65t28.5 -70q20 -43 66 -129zM827 659q38 0 76.5 3.5t77.5 3.5h154h153q39 0 61 31.5t5 66.5
q-5 8 -13 16.5t-12 18.5q-18 36 -31 73t-30 72q-18 35 -40 68.5t-40 68.5q-13 27 -21 53t-16.5 45t-30.5 46q-25 31 -50 31t-40 -29q-3 -5 -4 -12t-4 -13q-44 -89 -72 -141q-18 -36 -42 -68.5t-42 -68.5q-19 -36 -30 -75t-29 -75q-5 -10 -15.5 -17.5t-15.5 -17.5
q-13 -26 4.5 -53t46.5 -27z" />
    <glyph glyph-name="b" unicode="b" 
d="M2007 532q2 -55 -12 -129q-8 -33 -49 -118q-22 -41 -80 -99q-6 -6 -22.5 -22t-25 -23.5t-22.5 -19.5t-27 -21t-26 -16q-22 -10 -47 -17t-61 -14t-48 -10q-16 -4 -71 -20t-84 -19q-23 -2 -80 -0.5t-80 0.5q-22 0 -75 -3.5t-81 -2.5q-27 0 -80 -1t-78 -1q-28 0 -83 3t-82 3
q-26 0 -81 2t-83 2h-164q-11 0 -34.5 -5t-35.5 -5q-9 0 -26.5 3t-26.5 3q-8 0 -23.5 1t-23.5 1q-42 3 -72 19q-52 25 -76 75q-3 7 -6 19l-4 16q-4 20 -4 62q0 5 -5.5 14.5t-4.5 13.5q0 7 1 20t1 19q0 8 2 24.5t2 24.5q0 10 3 30t3 30t-3 31.5t-3 33.5q0 11 -2 35t-2 37
q0 14 -1 39t-1 39t7 41t7 41t-3 43t-3 43t-4 43t-4 45q0 14 2 44t2 44q0 16 2 45.5t2 44.5q0 14 -3 43t-3 45q0 14 2 43t2 43q0 13 2 41t2 43q0 12 -2 38t-2 40v74q0 12 2 34t2 33q0 10 1 30t1 29t-1 26.5t-1 25.5t-0.5 34t0 38.5t2.5 32.5t6 36q22 89 84 121q10 5 39 10
q8 1 26 2t27 2q17 0 53 2t54 2q20 0 60 -4t59 -4q23 0 68 3t67 3h127q15 0 46 -2t46 -2q6 0 18.5 1t18.5 1q51 0 141 -8q39 -5 139 -27q75 -19 134 -45q44 -23 116 -80q9 -8 29.5 -24t34.5 -28.5t24 -26.5q9 -12 17.5 -28t12 -23.5t13.5 -32.5t11 -27q24 -57 32 -107
q11 -51 11 -112q0 -116 -39 -211q-9 -27 6 -54t43 -38q22 -7 57 -28t39 -23q56 -33 103 -80q6 -6 23 -22.5t25 -25t19.5 -22.5t18.5 -27q29 -54 45 -122q18 -74 18 -130zM934 1528q-34 0 -67.5 2.5t-61.5 3.5q-63 2 -129 2q-32 0 -64 1t-63 1q-29 0 -49.5 -22t-20.5 -52
q-1 -33 -3.5 -74t-2.5 -85q0 -40 4 -80t4 -80q0 -30 19.5 -54t46.5 -24t79 1t79 1h155h135q91 0 144 18q82 27 125 84q49 66 49 144q0 89 -70 141q-53 45 -147 62q-54 10 -162 10zM1620 434l4 4q4 5 6 8t5.5 11t6 16.5t4 23t1.5 31.5q-1 58 -15.5 88.5t-46.5 49.5
q-30 16 -125 34q-64 12 -129 15q-16 1 -44.5 4t-52 5t-44.5 3q-24 0 -71 -1t-70 -1q-28 0 -83.5 1t-82.5 1q-29 0 -85 1t-83 1t-84 -1t-84 -1q-29 0 -51.5 -21t-22.5 -49q0 -29 4 -59t4 -59q0 -30 -5 -60t-5 -59t23.5 -52.5t52.5 -23.5h160h157q40 0 79.5 3t78.5 3
q42 1 82.5 -2.5t77.5 -3.5h2q15 -1 39 1t57 5.5t55 5.5q88 3 152 17q99 16 133 61z" />
    <glyph glyph-name="c" unicode="c" horiz-adv-x="1994" 
d="M1057 -6q73 0 155 16q100 15 154 35q103 34 147 59q35 21 121 93q44 34 111 104q9 10 32 34t39 43t29 38q36 60 23 135q-16 70 -78 111q-52 34 -131 16q-73 -14 -109 -70q-51 -76 -94 -114q-50 -47 -119 -84q-49 -30 -135 -52q-70 -18 -145 -18q-48 0 -150 25
q-8 2 -35.5 9.5t-40 11.5t-33 12t-36.5 18q-74 43 -123 92q-31 31 -90 125q-29 50 -51 143q-21 71 -21 150q0 8 -0.5 36.5t0 42t2.5 35.5t6 39q12 51 66 140q50 86 88 124q51 51 123 93q39 23 143 53q90 22 152 22q59 0 141 -22q97 -21 137 -43q10 -6 20.5 -13t18 -13
t19 -16t16.5 -15t18 -17t17 -16q8 -7 26 -22t28 -24t23.5 -23t22.5 -27q57 -84 139 -84q45 0 97 36q67 47 78 111q11 60 -35 127q-8 11 -26.5 39t-32.5 47t-29 35q-12 13 -28 27t-28 23.5t-32 25t-29 22.5q-42 30 -129 78q-100 54 -135 65q-74 25 -146 37q-128 15 -151 15
q-84 0 -125 -6q-31 -5 -123 -27q-38 -12 -115 -45q-100 -44 -159 -86q-95 -64 -142 -111q-19 -19 -35.5 -41.5t-39 -58t-29.5 -45.5q-71 -104 -94 -154q-23 -55 -39 -119q-8 -32 -21 -122q-12 -82 -12 -123q0 -19 2 -39.5t5.5 -45t4.5 -38.5q7 -49 29 -121q13 -54 39 -117
q8 -18 21.5 -53t26 -62t28.5 -49q42 -63 118 -135q86 -86 135 -119q22 -15 49 -27.5t62 -26t53 -21.5q75 -31 117 -41q58 -18 121 -27q102 -10 123 -10z" />
    <glyph glyph-name="d" unicode="d" horiz-adv-x="2121" 
d="M1993 1028q4 -39 4 -115l1 -58q2 -58 -1 -58q-1 -16 -5 -35t-7 -31.5t-10 -36t-9 -32.5q-9 -33 -53 -127q-26 -58 -78 -127q-55 -72 -100 -113q-67 -63 -119 -96q-76 -50 -133 -78q-3 -2 -10.5 -5t-10.5 -5q-20 -9 -43 -16.5t-55.5 -16t-44.5 -12.5q-83 -25 -143 -37
q-16 -3 -46 -10.5t-54 -12t-46 -6.5q-88 -10 -160 -10q-51 -2 -157 2q-5 0 -158 6q-31 0 -95 3t-95 3h-21h-23t-20.5 0.5t-22.5 2t-19 4t-21 6t-19 8.5t-20 12q-68 50 -68 139q6 60 6 154q0 20 -2 71.5t-2 81.5q0 23 -4 74t-4 78q0 25 2 76t2 77v154q0 26 -1 77t-1 77
q0 27 -2 78t-2 75q0 27 7 78.5t7 75.5q0 30 -2 81t-2 72l-2 152q0 81 76 137q61 43 188 47h162q27 0 80.5 -6t79.5 -6q53 -2 162 -2q53 0 155 -12q16 -2 50 -6t59.5 -8.5t48.5 -10.5q59 -14 149 -47q80 -29 144 -65q69 -37 133 -82q64 -47 119 -101q75 -75 104 -116
q11 -15 22 -34.5t17.5 -33.5t18 -37.5t16.5 -34.5q2 -6 12 -30t19 -49t16 -50q20 -64 31 -133zM1599 682q2 5 10 22t11 24.5l9 22.5t9 25t6.5 23.5t4.5 25.5q7 59 -7 154q-15 100 -45 170q-36 81 -73 123q-32 36 -111 92q-34 27 -127 68q-68 38 -131 57q-69 21 -137 33
q-59 10 -144 10q-54 1 -104.5 -0.5t-91.5 -1.5q-102 0 -146 -47q-57 -54 -57 -146q0 -37 1 -74t1 -75t-3 -75.5t-3 -74.5q0 -38 6 -75.5t6 -75.5q0 -37 -1 -74.5t-1 -75.5t-5 -75t-5 -74q0 -59 33 -123q37 -59 90 -92q41 -23 123 -27q19 0 77.5 1t79.5 -1h13v2q69 0 151 10
q45 7 150 37q103 28 145 47q83 39 154 99q79 66 112 141z" />
    <glyph glyph-name="e" unicode="e" horiz-adv-x="2097" 
d="M1823 344q66 0 104 -53q45 -67 45 -123q-3 -76 -53 -123q-39 -39 -123 -39q-1 0 -2 -1t-2 -1q-22 0 -65 -6t-64 -6t-64 5t-65 5t-66 -4t-65 -4t-64 3t-65 3q-24 0 -71 2t-70 2q-22 0 -69 -6t-71 -6t-71 4t-70 4q-24 0 -70 -3t-69 -3t-71 5t-71 5q-24 0 -70.5 -2t-68.5 -2
q-9 0 -39 -0.5t-44.5 0t-37.5 2.5t-41 6q-55 11 -94 60q-43 53 -43 106q-4 58 -4 152q0 21 6 72t6 81q0 24 1 75.5t1 78.5q0 24 -3 75t-3 78q0 25 -1 76.5t-1 77.5t-3 77t-3 77t6 77t6 76q0 27 -5 78t-5 74q0 30 2 81.5t2 71.5q0 49 -2 83.5t-2 70.5q0 55 62 117
q27 29 57 39.5t76 13.5q43 2 129 2q18 0 62 3.5t67 2.5q21 0 64.5 -1t66.5 -1t70 -1t71 -1q23 0 71 1t72 1q23 0 71 -4t73 -4q23 0 70 6t71 6q25 0 72.5 -3t70.5 -3q21 0 64 -1t65 -1t64 2t63 2t64 -1t65 -1q67 0 121 -51q49 -46 52 -117q3 -64 -41 -125q-35 -53 -105 -53
q-35 0 -70 -2t-71 -2q-35 0 -70.5 3t-71.5 3t-71 -4t-70 -4q-36 0 -71 1t-70 1q-36 0 -71 1t-70 1q-36 0 -71.5 3t-70.5 3q-36 0 -71.5 -5t-71.5 -5q-35 0 -70 4t-71 4q-82 0 -156 -70q-70 -74 -70 -155q0 -15 -1 -29t-1 -29q0 -77 56 -133q58 -55 135 -55h135q35 0 69 2
t68 2q35 0 69 -1t68 -1q82 0 125 -43q50 -50 53 -123q0 -50 -49 -123q-45 -63 -102 -63q-37 0 -73.5 6t-80.5 6h-153q-37 0 -75.5 -3t-58.5 -6l-20 -3q-84 0 -121 -45q-35 -40 -39 -127q-4 -84 29 -129q24 -31 60.5 -50.5t74.5 -19.5l7 1q8 1 21 2t30 2t41 2t49 1
q20 0 69 -6t78 -6q22 0 71 7t75 7q24 0 73 -1t74 -1t73.5 -6t71.5 -6q26 0 76 3t72 3h147q46 0 79 -1t67 -1z" />
    <glyph glyph-name="f" unicode="f" horiz-adv-x="2099" 
d="M1804 1880q67 -11 123 -57q49 -43 49 -119q0 -65 -51 -119q-52 -49 -119 -49q-36 0 -71 -1t-70 -1q-36 0 -71 1t-70 1q-36 0 -71.5 -6t-70.5 -6q-36 0 -71.5 4t-71.5 4q-35 0 -70 -4t-71 -4q-35 0 -70.5 3t-71.5 3q-35 0 -70 -1t-71 -1q-35 0 -70 4t-71 4q-84 0 -142 -61
q-59 -59 -59 -142v-104q0 -62 55 -113q57 -57 113 -57q36 0 72 1t73 1h148q36 0 72 3t73 3q78 0 127 -49q43 -43 43 -129q0 -83 -45 -125q-52 -49 -127 -49q-35 0 -69.5 -1t-69.5 -1q-69 0 -139 2q-35 0 -70.5 2t-71.5 2q-70 0 -125 -55q-59 -59 -59 -125q0 -46 1 -92.5
t1 -92.5t-2 -92t-2 -92q0 -62 -31 -104q-45 -55 -94 -66q-50 -13 -113 14q-47 22 -76.5 64t-29.5 92q-4 60 -4 154q0 21 1 72t1 81q0 23 1 74t1 80v153q0 24 2 75.5t2 78.5q0 26 -2 77t-2 75q0 27 -1 78t-1 75q0 29 4 80t4 74v153q0 49 -1 83t-1 71q0 60 25 100q27 39 90 64
q43 16 143 16q15 0 47 -5t49 -5q21 0 64.5 4t66.5 4q26 0 77 -1t77 -1q28 0 85 1t85 1t87 -4t89 -4q28 0 86 5t86 5q26 0 81 -5t81 -5q38 0 178 4q14 1 58.5 4t60 2.5t57.5 -4.5z" />
    <glyph glyph-name="g" unicode="g" horiz-adv-x="2131" 
d="M2009 537q0 -77 -10 -101q-24 -53 -86 -135q-29 -40 -113 -115q-41 -34 -121 -77q-90 -50 -129 -62q-73 -23 -172 -37q-122 -16 -176 -16q-44 0 -166 10q-24 2 -141 27q-9 2 -62 10.5t-79 17.5q-20 7 -41 18.5t-46.5 26.5t-39.5 23t-59.5 29.5t-67.5 36.5q-17 13 -35 30
t-38 38t-32 32q-86 82 -119 131q-31 44 -79 158q-29 67 -41 114q-19 64 -27 121q-4 27 -4 123q0 11 -1 38t-0.5 47t3.5 38q7 73 20 123q31 108 37 121q32 77 86 157q12 17 29.5 37t27 30t36 36t30.5 30q10 9 39.5 39t50.5 48.5t43 33.5q22 16 47.5 28.5t62.5 27.5t52 22
q10 3 27 9.5t30.5 11t26.5 8.5q123 40 168 45q37 4 172 4q32 0 180 -10q114 -12 176 -29q43 -12 119 -53q91 -40 117 -60q58 -42 100 -86q28 -28 82 -102q47 -67 35 -133q-9 -65 -76 -115q-37 -24 -102 -24q-98 0 -146 67q-56 78 -94 107q-51 38 -131 61q-54 15 -182 23
q-17 0 -53.5 1t-55.5 1q-12 0 -35 1.5t-42 1.5t-35 -3q-90 -15 -172 -60q-72 -42 -146 -116q-35 -35 -86 -123q-55 -88 -67 -136q-9 -35 -9 -151q0 -14 -1.5 -46t-0.5 -55.5t5 -43.5q16 -78 49 -140q7 -12 14.5 -23t19.5 -24l18 -19.5t23 -23t21 -20.5q39 -39 127 -92
q68 -38 145 -62q10 -3 45.5 -14.5t60 -17t48.5 -7.5q21 -1 65 1.5t64 2.5q13 0 39.5 -1t48.5 -1t41 2t39 7t46.5 14t37.5 12q10 3 31.5 9t32 9.5t24.5 10.5t24 16q27 25 58 109q14 37 14 41q0 17 -14.5 30t-30.5 13q-27 1 -53 -2t-49 -3q-67 0 -121 58q-60 56 -60 123
q0 63 62 121q55 55 121 55q44 0 88 1t88 1q43 0 86.5 -5t87.5 -5q70 0 119 -52q49 -46 49 -118q0 -23 1.5 -94.5t0.5 -110.5q0 -9 3 -27.5t3 -27.5z" />
    <glyph glyph-name="h" unicode="h" horiz-adv-x="2152" 
d="M1851 1868q68 -3 121 -53q51 -48 51 -119q5 -60 5 -154q0 -20 -2.5 -71.5t-2.5 -81.5v-152q0 -25 3.5 -77t3.5 -77t-3.5 -76t-3.5 -77q-1 -28 2 -80.5t3 -73.5q0 -27 -3.5 -78t-3.5 -75q0 -27 2 -78.5t2 -75.5q0 -30 1.5 -81.5t1.5 -72.5q-1 -46 -4 -79.5t-3 -71.5
q0 -74 -49 -123q-52 -52 -123 -55q-73 0 -127 51q-47 50 -47 127q0 34 2 67.5t2 67.5t-5 67.5t-5 67.5t7 67.5t7 67.5q0 54 -49 103q-47 47 -102 47q-39 0 -77.5 1t-76.5 1t-76 -6t-77 -6h-154q-38 0 -76 -1t-77 -1q-38 0 -76.5 2t-77.5 2q-38 0 -76 2t-76 2
q-55 0 -91 -39.5t-36 -95.5v-138q0 -35 -5 -69.5t-5 -69.5t2 -69.5t2 -69.5q0 -72 -51 -123q-42 -39 -125 -39q-86 0 -125 37q-55 51 -55 125q10 59 10 153q0 20 2 72t2 82q0 23 -2 74t-2 78v153q0 26 -3 77t-3 77t5 77t5 76q0 27 -7 78.5t-7 75.5q0 27 4 78.5t4 75.5
q0 30 -3 80.5t-3 70.5q0 50 7 84t7 70q0 83 43 123q54 51 123 51q76 -3 129 -47q51 -51 51 -127q-6 -76 -6 -166q0 -26 2 -83t2 -83q-1 -35 -2 -62.5t-1.5 -48t-0.5 -57.5q0 -4 -1 -8t-1 -8q0 -49 35.5 -82t83.5 -33q39 0 77.5 -5t76.5 -5t75.5 2t75.5 2h154q38 0 76 1t77 1
q38 0 76 2t76 2q39 0 77 1t76 1q65 0 113 45q45 45 45 113v157q0 39 3 78.5t3 79.5q0 43 2.5 83.5t3.5 72.5q0 77 48 119q56 53 120 53z" />
    <glyph glyph-name="i" unicode="i" horiz-adv-x="770" 
d="M387 1880q67 0 119 -55q55 -55 55 -119q0 -38 1 -76t1 -76q0 -39 -4 -77t-4 -76t5 -76t5 -76q-2 -78 -2 -153q0 -38 -4 -76.5t-4 -77.5q0 -38 3 -75.5t3 -75.5q0 -39 1 -77.5t1 -76.5t-4 -76.5t-4 -77.5q0 -38 2 -75.5t2 -75.5q0 -39 1 -77.5t1 -76.5q0 -62 -55 -121
q-63 -59 -121 -59t-121 59q-59 63 -59 121q0 39 4 77.5t4 76.5v153q0 38 1 76t1 76q0 39 -4 77.5t-4 76.5t2 75.5t2 75.5q0 39 2 77.5t2 76.5t-1 76t-1 77q0 38 -3 76t-3 76q0 39 6 77t6 76t-5 76.5t-5 77.5q0 64 55 123q46 46 123 49z" />
    <glyph glyph-name="j" unicode="j" horiz-adv-x="2140" 
d="M1835 1917q80 0 123 -43q59 -59 59 -125q0 -29 -6 -86t-6 -86v-174q0 -21 -1 -64t-1 -65t7 -64.5t7 -62.5q0 -21 -2 -64t-2 -65q0 -98 -8 -174q-17 -112 -33 -156q-16 -41 -67 -145q-12 -23 -29 -46.5t-39.5 -51.5t-32.5 -42q-67 -86 -110 -127q-45 -43 -131 -102
q-79 -56 -144 -86q-85 -40 -159 -59q-61 -15 -168 -23q-9 -1 -33.5 -6.5t-38.5 -5.5q-43 0 -162 18q-126 24 -158 35q-71 25 -149 68q-37 20 -115 82q-11 8 -36.5 26t-43 31.5t-32.5 28.5q-16 15 -30.5 33t-31.5 42t-26 35q-74 88 -89 113q-37 61 -20 135q16 56 88 100
q66 40 129 23q66 -15 102 -82q37 -60 74 -102q28 -32 94 -86q5 -4 23.5 -19.5t27.5 -22.5t24 -17.5t28 -16.5q15 -9 31.5 -16t36.5 -12.5t33 -8t37.5 -7.5t33.5 -7q115 -27 178 -21q61 5 141 29q57 18 129 65q79 48 117 86q44 40 76 84q32 40 61 97q50 96 68 182q6 30 6 35
q0 42 -2 84t-2 84v168q0 42 2 83.5t2 83.5q0 63 -47 107q-45 45 -107 45q-35 0 -70 -4t-71 -4q-35 0 -70 3t-71 3q-65 0 -121 53q-49 52 -49 121q0 78 47 125q56 53 125 53q38 0 75.5 -3t75.5 -3t76 -2t76 -2t75 2t74 2q38 0 76 -3t76 -3z" />
    <glyph glyph-name="k" unicode="k" horiz-adv-x="1933" 
d="M1772 289q42 -44 38 -125q-3 -70 -53 -117q-48 -45 -112 -45q-77 0 -127 53q-25 27 -52 54t-51 53q-27 29 -49 58.5t-45 55.5q-25 26 -54.5 50t-54.5 51t-46.5 57.5t-47.5 57.5q-25 28 -54.5 51.5t-53.5 50.5q-25 27 -44.5 59.5t-43.5 59.5q-35 39 -111 61
q-65 20 -121 -2q-23 -10 -36.5 -18t-18.5 -11.5t-20.5 -20.5t-24.5 -26q-54 -48 -80 -104q-31 -71 -31 -129q0 -37 -4 -73.5t-4 -72.5q0 -37 1 -73t1 -72q0 -78 -47 -125q-51 -51 -123 -51t-125 53q-47 47 -47 125q0 37 3 74t3 74t-7 73.5t-7 73.5q0 38 5 75t5 74t-3 74
t-3 74t-1 74t-1 75q0 37 5 74t5 74t-3 73.5t-3 73.5t-1 74.5t-1 75.5q0 37 4 73.5t4 73.5t-5 74t-5 74v149q0 66 57 123q51 51 123 51q83 -4 129 -47q43 -46 43 -129q0 -41 2 -81.5t2 -80.5q0 -41 1 -81t1 -80t-2 -80.5t-2 -81.5q0 -36 19 -63.5t49 -41.5q70 -32 127 13
q27 24 55 51t59 53t62 50t57 46q60 53 117 101q29 25 59 49.5t58 48.5q30 26 57 53.5t55 51.5q30 25 63 46t62 46q27 23 54.5 50.5t58.5 53.5q63 53 127 47q58 -5 113 -71q53 -59 47 -123q-5 -59 -66 -113q-30 -25 -54 -54t-50 -52q-27 -22 -59.5 -41t-61.5 -45
q-27 -23 -51 -52t-52 -53t-60 -43.5t-60 -44.5q-31 -26 -58.5 -51.5t-52.5 -46.5q-37 -32 -41 -101q-3 -65 31 -104q24 -26 52.5 -53.5t55.5 -57.5q27 -29 50.5 -59.5t50.5 -58.5q26 -29 49.5 -60.5t50.5 -60.5q26 -30 56 -56t55 -53q28 -31 56 -59.5t50 -52.5
q20 -23 47 -54t56 -63z" />
    <glyph glyph-name="l" unicode="l" horiz-adv-x="1748" 
d="M1450 344q72 0 119 -47q57 -54 57 -119q0 -91 -65 -133q-55 -38 -148 -45q-30 -1 -85 1.5t-71 2.5q-27 0 -80 2t-79 2t-80 -4t-80 -4h-180h-180q-22 0 -72.5 4.5t-75.5 3.5q-18 0 -55 -6t-56 -6q-44 2 -104 35q-86 56 -86 147q6 53 6 141q0 19 -3 67.5t-3 76.5v141
q0 22 4 70.5t4 73.5q0 22 -4 69.5t-4 71.5q0 23 -3 70.5t-3 70.5q1 22 7.5 70.5t6.5 73.5q1 27 -2.5 74.5t-3.5 66.5q0 26 -2 73.5t-2 69.5q0 28 3 75t3 66q0 46 -1 77.5t-1 64.5q0 79 51 127q43 43 127 43q74 -3 119 -51q54 -51 51 -119q-4 -58 -4 -148q0 -20 1 -68.5
t1 -76.5q-1 -24 -2 -73.5t-2 -74.5q0 -24 5 -73t5 -74t-5 -73.5t-5 -71.5q0 -26 3 -75.5t3 -72.5q0 -29 -3 -78t-3 -69q-1 -47 5.5 -80t6.5 -66q0 -101 54 -155q58 -58 153 -58q38 0 76 -2t76 -2t75.5 1t75.5 1t76 1t76 1t75.5 -5t75.5 -5h152z" />
    <glyph glyph-name="m" unicode="m" horiz-adv-x="2144" 
d="M1841 1880q67 0 119 -49q49 -46 49 -119v-153q0 -20 6 -72t6 -82q0 -23 -4 -74t-4 -80q0 -24 -1 -75t-1 -78q0 -24 4 -76t4 -78t-4 -77t-4 -76q0 -26 -2 -78t-2 -76q0 -27 4 -78.5t4 -75.5q0 -30 2 -81t2 -72v-154q0 -73 -49 -125q-22 -23 -55 -38.5t-66 -16.5
q-62 -2 -125 61q-65 65 -65 123q0 37 7 74.5t7 75.5t-6 75.5t-6 75.5t5 76t5 76q0 37 -4 74t-4 75t-1 76t-1 76v151q0 38 -25 63t-57 24.5t-63 -25.5q-1 -2 -6 -5t-7 -5q-11 -12 -36.5 -42t-41.5 -46q-21 -21 -72.5 -63.5t-76.5 -67.5q-8 -8 -38 -42.5t-50 -50.5
q-63 -51 -117 -49q-41 0 -100 41q-4 3 -20.5 16t-24.5 21q-11 12 -47.5 49.5t-57.5 57.5q-20 20 -62.5 57.5t-62.5 56.5q-48 48 -57 58q-49 46 -102 24q-26 -9 -44 -34t-18 -56q0 -37 2 -74t2 -75v-148q0 -37 -1 -73.5t-1 -73.5q0 -38 -1 -75.5t-1 -74.5t3 -73.5t3 -73.5
t-2 -74.5t-2 -75.5q0 -68 -49 -117q-54 -54 -115 -57q-71 -3 -127 53q-59 55 -59 125q0 38 4 76t4 76q0 39 1 77t1 76t-5 76.5t-5 77.5v154q0 38 5 75.5t5 75.5q0 39 -5 77.5t-5 76.5t1 76t1 77q0 38 -3 76.5t-3 77.5q0 38 4 75.5t4 75.5q0 39 1 77.5t1 76.5q0 65 53 121
q63 63 123 61q75 -3 131 -73q48 -42 111 -103q11 -11 32 -32.5t40 -40.5t36 -35l107 -109q21 -20 59.5 -54t53.5 -48l108 -107q74 -74 158 -18q21 14 41.5 32.5t50 49.5t33.5 35l100 98q19 19 51.5 55.5t44.5 48.5q18 18 54.5 49.5t50.5 45.5q20 20 65.5 72.5t73.5 78.5
q52 46 131 43z" />
    <glyph glyph-name="n" unicode="n" horiz-adv-x="2144" 
d="M1837 1886q66 0 125 -55q51 -54 51 -123q0 -39 2 -77.5t2 -76.5q0 -39 -5 -77t-5 -76q0 -39 4 -77.5t4 -76.5q0 -39 -1 -77t-1 -76q0 -39 2 -77.5t2 -76.5q0 -39 -3 -77.5t-3 -76.5t2 -76t2 -77q0 -38 -3 -76.5t-3 -77.5q0 -38 5 -76t5 -77q0 -38 1 -76.5t1 -77.5
q0 -52 -63 -119q-53 -53 -117 -53q-68 -3 -115 35q-2 2 -7 10.5t-9 11.5q-26 28 -52.5 54.5t-51.5 54.5q-27 27 -58 49.5t-57 48.5q-26 27 -49.5 57.5t-50.5 57.5q-27 28 -56 54t-53 50q-25 27 -53 52.5t-53 52.5q-24 25 -49.5 54.5t-53.5 57.5q-26 27 -50 56t-50 55
q-29 30 -58 57.5t-51 49.5q-20 20 -38 37.5t-31.5 31t-36.5 37.5q-27 26 -55 53t-54 53q-48 51 -110 27q-27 -11 -43.5 -37t-16.5 -59q0 -37 3 -74.5t3 -75.5q0 -37 -2 -73.5t-2 -73.5t-4 -74t-4 -74q0 -38 1 -75t1 -74t1 -74t1 -74q0 -38 1 -75t1 -74q0 -73 -53 -123
q-46 -49 -125 -49q-78 0 -125 47q-45 48 -45 127q0 39 -1 77.5t-1 76.5q0 39 2 77t2 76t-3 76.5t-3 77.5v153v152q0 39 2 77.5t2 76.5q0 39 -3 77t-3 76t1 76.5t1 77.5q0 38 2 76t2 77q0 38 -4 76t-4 76q0 76 53 129q50 50 127 53q11 0 22 -2.5t27.5 -9.5t20.5 -8
q59 -10 96 -47q21 -21 48 -46t54 -53q24 -25 44.5 -54.5t46.5 -55.5q25 -26 51.5 -50t50.5 -49q25 -26 52.5 -48t51.5 -48l99 -102q76 -75 100 -101l98 -102l99 -102q24 -25 46.5 -53t47.5 -54t51.5 -49.5t50.5 -48.5q29 -27 65 -35t68 4q31 14 50.5 45t19.5 70q0 34 2 67.5
t2 67.5q0 35 -3 69t-3 68v137q0 34 3 68t3 68q0 35 2 69t2 68t-4 67.5t-4 67.5q0 62 55 121q61 61 119 61z" />
    <glyph glyph-name="o" unicode="o" horiz-adv-x="2117" 
d="M1921 1296q7 -17 12.5 -37.5t10.5 -45t8 -37.5q1 -4 13.5 -50.5t16.5 -70.5q13 -89 13 -123q0 -26 -6 -73t-7 -52q-9 -64 -24 -121q-14 -59 -39 -119q-30 -67 -92 -153q-49 -77 -113 -140l-21 -21l-22.5 -22.5t-20.5 -19.5t-23 -21t-21.5 -18t-24.5 -18q-40 -27 -162 -78
q-88 -36 -116 -43q-66 -17 -121 -25t-125 -8q-18 0 -38.5 2t-45.5 5.5t-39 4.5q-12 2 -56 5.5t-67 9.5q-66 16 -119 39q-69 29 -157 88q-49 35 -134 120q-65 64 -114 138q-66 101 -88 155q-30 72 -41 119q-10 33 -23 121q-8 55 -8 125q0 10 -2.5 62.5t0.5 62.5
q3 23 17.5 64.5t17.5 54.5q11 45 41 118q41 97 84 158q61 90 112 139q65 65 138 117q101 66 157 90q17 7 36 12.5t46.5 12t36.5 8.5q77 23 123 27q96 14 123 14q23 0 125 -10q18 -3 38 -7.5t46.5 -11.5t38.5 -10q56 -14 116 -39q44 -20 154 -94q11 -7 46.5 -29.5t58.5 -39.5
t42 -36t35.5 -40.5t40 -58.5t29.5 -46q7 -11 31 -46t38.5 -59t24.5 -49zM1468 520q56 56 95 121q51 87 65 137q19 78 19 154q0 57 -23 151q-24 83 -59 142q-42 72 -90 123q-49 49 -123 92q-13 8 -26.5 14t-30.5 11.5t-27.5 9t-32 9t-29.5 7.5t-34.5 9t-39.5 10t-34.5 6.5
t-40.5 3.5q-66 0 -152 -21q-62 -15 -141 -59q-53 -31 -119 -97q-51 -48 -94 -120q-24 -42 -53 -142q-27 -110 -27 -149q0 -72 23 -152q15 -60 63 -137q41 -74 90 -123q63 -63 119 -94q61 -38 141 -57q104 -31 150 -31q19 0 40 4t36 8t39 12t36 11q6 1 35.5 8t41 10.5
t32.5 11t37 17.5q12 7 23.5 15.5t25 21t20.5 19t24 23.5z" />
    <glyph glyph-name="p" unicode="p" horiz-adv-x="2138" 
d="M2013 1356q4 -50 -12 -148q-16 -102 -35 -145q-23 -53 -88 -121q-71 -79 -111 -104q-47 -27 -141 -58q-114 -34 -145 -39q-102 -16 -152 -18q-25 -1 -71.5 3.5t-67.5 4.5l-69 -1q-69 0 -70 1q-23 0 -69 -4t-69 -4t-70 3t-71 3q-25 0 -72.5 -1t-70.5 -1q-68 0 -107 -39
q-39 -36 -39 -108v-134q0 -34 -5 -67.5t-5 -67.5q0 -33 1 -66t1 -67q0 -77 -49 -123q-54 -57 -123 -57q-60 0 -119 63q-61 61 -61 119v154q0 38 4 76t4 77q0 38 2 76.5t2 77.5q0 38 -6 76.5t-6 77.5q0 38 3 75.5t3 75.5q0 39 -2 77.5t-2 76.5q0 39 -1 77t-1 76q0 39 7 77.5
t7 76.5q0 39 -6 77.5t-6 76.5q0 39 -1 77t-1 76q0 62 59 121q63 59 121 59q1 0 3 -1t3 -1q2 0 4.5 -1t3.5 -1h111q18 0 55.5 2t57.5 2h155q25 0 77 -4t79 -4q25 0 77 4t79 4h145q29 1 82 -3.5t65 -4.5t44.5 1t56.5 0.5t45 -3.5q46 -8 141 -37q53 -15 119 -47q72 -37 109 -65
q18 -15 32.5 -31.5t36 -46t25.5 -33.5q3 -4 16.5 -23t18.5 -26.5l15 -22.5t15.5 -27.5t10.5 -25.5q21 -51 28 -143zM1626 1174q22 24 31.5 58t7.5 57.5t-2 39.5q-8 75 -72 127q-66 55 -123 68q-27 6 -78.5 6.5t-64.5 1.5q-18 1 -50 2.5t-57.5 2.5t-48.5 1q-25 0 -77 1t-78 1
q-29 0 -86.5 -1t-85.5 -1t-86 -2t-86 -2q-80 0 -133 -53q-62 -62 -62 -133q0 -58 43 -131q40 -66 96 -97q73 -43 131 -43q33 0 66 3t66 3q34 0 67 -3t66 -3h133q33 0 65.5 1t65.5 1q13 0 65.5 -2.5t59.5 0.5q20 3 41.5 9t45 14.5t34.5 11.5q72 26 106 62z" />
    <glyph glyph-name="q" unicode="q" horiz-adv-x="2125" 
d="M1933 303q67 -56 70 -113q5 -57 -53 -122q-57 -64 -127 -64q-68 0 -115 41q-13 11 -24 22.5t-23 22.5q-35 30 -81 38t-87 -11q-40 -21 -68 -33q-11 -5 -50.5 -25t-63.5 -26q-45 -12 -123 -23q-14 -1 -39 -4.5t-45.5 -5.5t-38.5 -2q-26 0 -72.5 9.5t-50.5 10.5
q-10 1 -39 2.5t-48.5 4.5t-37.5 8q-23 6 -63.5 27t-48.5 24q-103 41 -160 80q-56 40 -135 119q-74 74 -115 135q-64 93 -92 155q-28 68 -43 117q-8 31 -21 123q-2 10 -6.5 38t-7 48t-2.5 39q0 23 11 66t13 57q1 5 3 53t8 72t45 114q34 78 88 158q50 70 117 137
q62 59 139 111q71 48 155 86q10 4 51 23t64 26q72 18 123 25q18 2 38.5 2t46.5 -1t40 -1q103 0 123 -2q92 -13 123 -23q59 -14 119 -39q83 -35 159 -86q80 -54 140 -114q15 -15 30.5 -35t25.5 -34t27 -39.5l25 -37.5q63 -93 90 -153q7 -17 12.5 -37.5t10.5 -45.5t8 -38
q4 -14 13 -38t14.5 -44t7.5 -39q10 -68 10 -123q0 -70 -8 -125q-2 -20 -27 -123q-7 -22 -47 -115q-20 -53 -49 -106q-17 -29 -12 -63t30 -56q14 -11 24 -24.5t19 -22.5zM1065 346q91 0 199 43q13 4 15 16t-9 21l2 4q-63 56 -66 119q-5 53 56 121q56 66 112 69q66 6 129 -47
q2 -2 3 -5t3 -5q22 -20 53.5 -14t43.5 34q39 89 47 170q10 92 -8 179q-3 17 -9.5 35.5t-17 42t-14.5 32.5q-25 57 -58 105q-58 84 -86 110q-44 40 -119 76q-54 29 -133 49q-62 14 -137 17q-73 0 -151 -19q-81 -23 -142 -57q-8 -5 -32.5 -19t-35.5 -21t-28.5 -20t-30.5 -26
q-36 -36 -84 -115q-55 -85 -67 -125q-6 -19 -9 -40t-5 -56t-3 -43q-3 -69 9 -139q13 -69 34 -119q25 -65 56 -109q48 -73 90 -110q40 -38 119 -80q65 -37 133 -51q86 -23 141 -23z" />
    <glyph glyph-name="r" unicode="r" horiz-adv-x="2138" 
d="M1991 264q30 -50 12 -133q-15 -65 -76 -102q-40 -25 -88 -25q-105 0 -151 74q-21 35 -40.5 64.5t-41.5 64.5q-31 49 -82 131q-13 21 -38.5 65.5t-39.5 65.5q-15 24 -37.5 70t-34.5 65q-36 59 -76 88q-30 21 -41.5 27t-27.5 7.5t-41 -1.5q-39 -1 -75.5 1.5t-68.5 2.5
q-39 1 -76.5 -0.5t-68.5 -1.5q-36 0 -71.5 -1t-71.5 -1t-72 4t-72 4q-56 0 -95.5 -43.5t-39.5 -101.5q0 -35 -5 -69.5t-5 -69.5v-140q0 -34 6 -68t6 -69q0 -64 -53 -121q-58 -58 -119 -61q-71 -3 -129 55q-53 50 -53 129q0 38 3 76.5t3 77.5q0 38 -3 76t-3 77q0 38 3 76.5
t3 77.5q0 38 -3 76t-3 77q0 38 4 76t4 76q0 39 -1 77.5t-1 76.5q0 39 -3 77t-3 76q0 39 -1 77.5t-1 76.5q0 39 3 77t3 76v154q0 64 35 107q22 28 69 49q44 16 99 16q22 0 66 2t65 2t65 -2t66 -2q24 0 73 3t74 3q23 0 72 -3t74 -3t74 -2t73 -2q20 0 43.5 1t52 2.5t44.5 2.5
q18 0 65 2.5t72 1.5q21 -1 44 -4t50.5 -7.5t42.5 -6.5q114 -15 137 -21q55 -18 119 -49q78 -40 111 -65q14 -12 28 -27.5t21.5 -25t24 -32.5t20.5 -28q34 -46 63 -131q33 -94 37 -139q1 -13 3.5 -52.5t2 -51t-3.5 -48.5q-12 -75 -43 -145q-22 -43 -94 -119
q-56 -61 -139 -107q-28 -18 -39 -52t6 -62q17 -29 40 -54.5t40 -54.5q18 -28 31 -59.5t30 -59.5q15 -24 34 -51.5t38 -58.5q17 -28 37.5 -55t38.5 -56zM477 1343q0 -7 -2 -14t-2 -14q0 -51 37 -119q37 -65 84 -90q56 -37 121 -37q38 -1 74 0.5t65 1.5q35 0 69.5 3t69.5 3
q31 -1 67 -4.5t73 -3.5q35 0 69 3t68 3q66 0 125 6q45 6 118 31q81 25 109 53q56 61 49 160q-4 73 -78 131q-6 5 -12.5 9.5t-14 8.5t-13 7t-15.5 6t-14 5t-16 5t-14.5 4t-16.5 4.5t-15 3.5q-62 14 -139 17q-20 1 -68.5 6.5t-72.5 5.5q-43 2 -129 2q-21 0 -64 1t-65 1
q-23 0 -67 -5.5t-62 -6.5q-21 0 -64 5t-65 5q-77 0 -138 -61q-51 -48 -51 -136z" />
    <glyph glyph-name="s" unicode="s" horiz-adv-x="2119" 
d="M1989 686q9 -27 6 -131q-3 -69 -27 -143q-25 -69 -67 -129q-60 -82 -115 -123q-57 -41 -150 -80q-84 -31 -163 -47q-20 -4 -168 -19q-6 0 -18 -1t-19 -1q-6 -1 -58 -7.5t-80 -6.5q-25 0 -73 7t-66 9q-26 1 -74 6.5t-63 6.5q-24 3 -69.5 8t-67.5 8q-12 2 -61.5 6t-75.5 10
q-24 4 -69 19t-65 20q-68 15 -135 33q-70 18 -104 76q-33 56 -14 129q17 68 75 104q59 35 129 17q27 -7 80 -14t76 -13q22 -4 75 -16.5t81 -16.5q9 -2 67 -14t88 -16q9 -1 127 -7q108 -10 127 -10q26 -1 69.5 5t57.5 7q105 10 133 15q95 16 131 31q88 32 113 71q29 40 29 88
q0 5 2 11l2 6q-4 4 -6 10q-24 93 -166 113q-67 11 -158 14q-28 2 -82 -1.5t-78 -2.5q-21 2 -70.5 7.5t-74.5 6.5q-25 2 -75 4t-73 4q-82 6 -147 15q-34 2 -85.5 12.5t-59.5 11.5q-7 1 -33.5 6t-34.5 7t-25.5 6.5t-28 8.5t-20.5 9q-49 24 -141 103q-2 2 -14 12.5t-15 13.5
t-13.5 12.5t-14.5 13.5t-12 12.5t-12.5 14.5t-10 13.5t-10.5 15.5q-45 66 -62 137q-13 53 -6 148q1 9 2.5 34.5t3 39t5 34t9.5 37.5q10 28 25 52t39.5 54t24.5 31q55 76 110 119q58 44 141 80q75 27 158 45q116 23 178 25q96 5 181 2q6 0 159 -6q21 -1 76 -1t84 -2
q29 -3 81 -15t75 -15q120 -17 157 -25q81 -15 154 -37q66 -20 104 -84q30 -62 9 -133q-20 -64 -86 -96q-62 -36 -127 -16q-25 8 -77 17t-61 11q-17 3 -63.5 16.5t-73.5 16.5q-24 3 -71 3.5t-68 2.5q-23 2 -70 5t-69 5q-22 1 -68.5 0t-71.5 0q-14 0 -58 3t-71 2
q-11 0 -129 -17q-12 -2 -40.5 -6t-49 -8.5t-37.5 -11.5q-51 -22 -96 -82q-57 -76 -41 -142q18 -74 119 -129q4 -1 22.5 -2.5t73.5 -5.5t123 -10q12 -1 55 -7.5t68 -7.5q39 -4 125 -8q22 -1 63.5 -7t61.5 -7l151 -6q17 -1 77 0.5t77 -2.5q22 -3 46 -9.5t55 -17t44 -14.5
q87 -25 142 -58q74 -45 127 -116q69 -93 84 -156zM1657 582l2 -7z" />
    <glyph glyph-name="t" unicode="t" horiz-adv-x="2136" 
d="M1837 1880q73 0 123 -47q56 -59 53 -123q0 -76 -51 -127q-56 -53 -127 -53h-143q-36 0 -72 6t-72 6t-71.5 -5t-71.5 -5q-66 0 -111 -45q-57 -57 -57 -111q0 -38 1 -75t1 -74q0 -38 1 -76t1 -76q0 -37 -2 -74t-2 -75t5 -75.5t5 -74.5q0 -38 -1 -75.5t-1 -75.5v-150v-151
q0 -37 -1 -74.5t-1 -75.5q0 -69 -51 -123q-57 -54 -123 -51q-67 0 -119 55q-59 63 -59 121q0 38 4 76.5t4 77.5q0 38 2 75.5t2 75.5t-1 76.5t-1 77.5q0 38 -4 75.5t-4 75.5t2 76.5t2 77.5q0 38 1 76t1 76v153q0 38 1 76t1 76q0 57 -42.5 95t-102.5 38q-37 0 -74.5 3t-75.5 3
t-75.5 4t-75.5 4t-75.5 -5t-74.5 -5q-83 0 -129 49q-53 50 -53 129q0 56 61 121q59 55 123 55q38 0 76 1t76 1q39 0 77 -3t76 -3t76.5 3t77.5 3q38 0 76 -1t76 -1q39 0 77 1t76 1t76.5 -6t77.5 -6q38 0 76 2t77 2q38 0 76 4t76 4q39 0 77 1t76 1t76.5 -6t77.5 -6z" />
    <glyph glyph-name="u" unicode="u" 
d="M2007 1714q0 -30 -4 -88t-4 -88t-1 -89t-1 -87q0 -26 3 -79t3 -79q1 -30 -0.5 -84.5t-1.5 -72.5q0 -123 -4 -158q-2 -23 -6.5 -48t-12 -58t-10.5 -48q-22 -91 -45 -149q-5 -12 -14.5 -38.5t-17.5 -47t-17 -37.5q-14 -22 -80 -103q-5 -6 -23.5 -30.5t-26.5 -35t-23 -27.5
t-29 -29q-86 -77 -123 -101q-75 -47 -156 -78q-67 -25 -168 -43q-99 -18 -170 -18q-4 0 -12 1t-12 1q-90 4 -133 12q-36 5 -130 37q-31 9 -122 53q-89 41 -117 60q-48 33 -119 104q-9 8 -36.5 33t-45 43t-31.5 37t-33 59.5t-28 55.5q-42 78 -57 116q-39 98 -47 135
q-6 28 -8 82t-3 60q-2 18 -8.5 67t-7.5 76q0 24 -1 71t-1 70q0 24 1 70t1 68q0 23 2 68t2 67t-3 67t-3 68t2 68t2 67q0 61 51 119q46 46 117 49q73 3 123 -47q53 -50 53 -123q0 -18 4 -56t4 -57t1 -56t1 -56q0 -29 1 -86t1 -86t-1 -86t-1 -86q0 -18 -2.5 -65t-1.5 -72
q0 -104 6 -138q2 -16 7.5 -34.5t10 -31t13 -34t12.5 -31.5q35 -90 88 -157q56 -70 129 -123q86 -57 150 -76q72 -22 166 -25q70 -2 166 23q110 28 157 59q48 29 109 94q42 45 82 119q29 55 51 148q3 15 18 69.5t17 85.5q1 34 0.5 51.5t-3 53t-3.5 53.5q0 27 -3 80t-3 78v147
q0 25 1 74t1 74t-1 74t-1 73q0 78 55 133q56 52 133 49q70 -3 121 -57q51 -55 51 -123z" />
    <glyph glyph-name="v" unicode="v" 
d="M1905 1860q71 -38 92 -99q23 -72 -8 -139q-16 -30 -36 -60t-36 -63l-66 -127q-15 -33 -29.5 -65.5t-29.5 -65.5q-17 -31 -35.5 -62t-34.5 -63q-14 -28 -27.5 -61.5t-31.5 -67.5l-61 -129q-14 -27 -32.5 -59t-35.5 -66q-17 -35 -31.5 -67t-29.5 -62q-17 -33 -29.5 -66.5
t-28.5 -66.5q-55 -111 -63 -127q-15 -30 -34.5 -60.5t-35.5 -64.5q-16 -31 -29.5 -64.5t-29.5 -64.5q-26 -57 -97 -82q-73 -25 -129 -6q-67 24 -100 86q-18 49 -59 129q-9 18 -30.5 60.5t-33.5 66.5q-11 22 -34 65t-33 62q-9 19 -25.5 64t-28.5 69q-11 22 -37 63t-36 60
q-8 18 -24.5 63.5t-29.5 69.5l-61 129q-8 15 -33.5 58t-36.5 67l-65 127q-25 50 -62 129q-10 20 -34.5 62.5t-34.5 62.5q-20 41 -32.5 70t-27.5 59q-31 58 -6 131q23 70 84 103q76 35 133 16q61 -20 96 -96l66 -131q17 -33 37.5 -63.5t36.5 -63.5t31 -65.5t32 -65.5l66 -132
q17 -33 29 -67.5t28 -67.5t35 -64.5t35 -64.5t30 -66.5t31 -66.5t37 -63.5t37 -63.5q26 -55 86 -55.5t86 53.5q57 115 65 131q17 33 35.5 64.5t34.5 64.5q14 29 27.5 63t31.5 70q16 33 35.5 64.5t36.5 64.5q13 25 24 46t19.5 38.5t22.5 46.5q17 33 27 69t26 69
q17 33 36.5 63.5t35.5 63.5t34 64.5t35 64.5q38 71 97 90q67 23 133 -8z" />
    <glyph glyph-name="w" unicode="w" horiz-adv-x="2142" 
d="M2009 1710q0 -39 -1 -77.5t-1 -76.5q2 -78 2 -153v-154q0 -39 3 -77t3 -76q0 -39 2 -77.5t2 -76.5q0 -39 -5 -77.5t-5 -76.5q0 -39 2 -77t2 -76q0 -39 -3 -77.5t-3 -76.5q0 -39 1 -77t1 -76q1 -37 5.5 -75.5t4.5 -78.5q0 -73 -77 -131q-70 -56 -146 -37q-18 5 -35.5 16
t-26.5 19t-28 27q-47 33 -104 88q-46 44 -99 96q-18 17 -48.5 51t-43.5 47q-18 18 -52 48t-48 44q-29 28 -48.5 54t-43.5 49q-55 53 -150 49q-93 0 -147 -51q-24 -24 -46 -53t-47 -54q-25 -24 -49 -47.5t-49 -48.5q-25 -24 -52.5 -47t-51.5 -47q-26 -25 -49 -51.5t-46 -49.5
q-23 -22 -50.5 -44t-53.5 -48q-59 -59 -121 -59q-65 0 -125 57q-53 50 -53 121q-6 60 -6 154q0 21 1 72t1 81q0 23 4 75t4 79q0 100 -2 153q0 25 -1 76.5t-1 77.5t3 77t3 77q0 27 -2 78t-2 75q0 27 -3 79t-3 75q0 30 2 81t2 72q0 49 1 83t1 71q0 78 45 123q42 39 125 39
q74 0 123 -43q47 -47 47 -119q2 -64 2 -156v-155q0 -29 3.5 -83t4.5 -73q0 -27 1 -79.5t1 -76.5q0 -30 -5 -82t-5 -73q0 -48 5 -83.5t5 -72.5q0 -52 43 -70.5t80 17.5l154 156q17 17 59.5 50.5t61.5 53.5q4 4 17 18t18 19t16.5 16t19 17t18.5 13.5t22.5 13t23.5 9.5
q65 22 123 -6q53 -22 106 -75q18 -17 48 -50t42 -45q81 -81 99 -98q16 -17 51.5 -47.5t52.5 -46.5q37 -35 80 -17t43 68q0 40 2 79.5t2 78.5t-1 77.5t-1 77.5t-1 78t-1 78v158q0 39 -1 77.5t-1 77.5v156q0 58 59 121q53 53 119 53q75 0 123 -51q49 -46 49 -121z" />
    <glyph glyph-name="x" unicode="x" horiz-adv-x="2131" 
d="M1962 297q47 -47 47 -125t-47 -125q-43 -43 -125 -43q-72 0 -119 47q-29 29 -56 58.5t-54 56.5q-27 26 -59.5 50t-61.5 54q-29 28 -54 60.5t-51 58.5q-29 29 -61 53.5t-59 51.5q-28 28 -54 58.5t-55 57.5q-34 35 -81 33.5t-83 -35.5q-30 -31 -59.5 -59t-52.5 -51
q-28 -27 -55.5 -57t-55.5 -58q-29 -29 -59.5 -55t-57.5 -52l-110 -114q-25 -25 -52 -55.5t-57 -59.5q-46 -49 -125 -49q-83 0 -127 47q-51 51 -51 127q0 60 59 119q26 27 51 54t52 54t50 56.5t48 54.5q27 27 57.5 50t55.5 48q27 27 54.5 53t53.5 52q25 26 46.5 57t47.5 57
q52 52 52 111q0 73 -43 119q-25 24 -55 47t-58 51q-26 27 -51 55t-51 54q-27 26 -56 50.5t-55 51.5q-23 24 -46.5 54t-51.5 57q-27 27 -56 51.5t-55 50.5q-53 56 -53 127q0 63 59 119q51 51 121 51q81 0 127 -43q17 -18 41.5 -46t52.5 -54q25 -24 49 -49l48 -50
q24 -24 46.5 -49.5t47.5 -50.5q26 -26 52.5 -48t49.5 -44q24 -24 47.5 -49t48.5 -50t49 -50.5t48 -49.5q25 -25 62 -26t63 24q47 49 96 98q25 24 44.5 53.5t43.5 53.5q49 47 98 96q25 26 51 50t48 46q27 27 50.5 53.5t43.5 47.5q25 24 51.5 46.5t50.5 45.5q48 51 125 51
t127 -47q43 -46 43 -127q0 -84 -43 -127q-26 -27 -52.5 -54.5t-53.5 -53.5q-26 -27 -55 -52t-56 -51q-26 -26 -55 -49.5t-56 -50.5q-20 -21 -47 -50t-57 -59q-26 -26 -53 -53.5t-54 -54.5q-39 -39 -39 -113q0 -78 39 -117l107 -106q28 -28 58 -51.5t55 -47.5
q26 -26 53.5 -51.5t54.5 -52.5q26 -26 47.5 -58t48.5 -59t57 -50t56 -50z" />
    <glyph glyph-name="y" unicode="y" horiz-adv-x="2119" 
d="M1944 1831q64 -54 51 -145q-1 -10 -3.5 -20t-5.5 -18.5t-8 -18.5t-8.5 -16.5t-11.5 -17t-11.5 -15.5t-13 -16t-12.5 -15t-13.5 -16t-13.5 -15q-15 -17 -43.5 -52.5t-44.5 -52.5l-90 -104q-18 -19 -49.5 -55.5t-40.5 -47.5q-10 -11 -29.5 -31t-35 -36.5t-29.5 -32.5
l-90 -105q-41 -43 -103 -124q-45 -59 -77 -140q-3 -10 -10.5 -30t-12 -32.5t-9 -30t-5.5 -32.5q-1 -32 -1 -43.5t2 -44t3 -43.5q0 -43 4 -133q1 -24 -5 -69.5t-7 -61.5q0 -5 -0.5 -30t-1.5 -34.5t-4 -28t-8.5 -32.5t-14.5 -26q-23 -34 -63.5 -53t-84.5 -17q-41 1 -78 24
t-57 60q-37 68 -39 106q-5 61 -2 140q0 45 4 139q0 7 4.5 59.5t2.5 79.5q-6 67 -31 135q-27 71 -74 133q-40 56 -94 117q-16 18 -45.5 54t-44.5 53t-48 48.5t-48 49.5q-75 85 -91 104l-92 105q-16 18 -44 54.5t-44 53.5q-69 80 -90 142q-21 76 2 121q24 53 90 81
q62 27 121 5q29 -12 59 -36t47.5 -43.5t45.5 -54.5q67 -75 104 -118l105 -121q21 -27 102 -121q82 -103 100 -123q33 -41 74 -61q65 -32 145 16q72 43 121 98q18 21 49 60.5t43 54.5q19 21 51 60.5t44 54.5l94 110q17 18 49.5 54.5t48.5 54.5q89 109 168 125q25 6 57 2
q57 -10 91 -41z" />
    <glyph glyph-name="z" unicode="z" horiz-adv-x="2134" 
d="M1833 350q76 0 121 -45q47 -47 47 -121q0 -76 -47 -123q-53 -53 -121 -53q-19 0 -59 -3t-60 -3t-60 3t-61 3q-25 0 -73 1t-72 1q-25 0 -73.5 -2t-71.5 -2q-25 0 -74 -1t-74 -1q-23 0 -71.5 2t-73.5 2q-14 -1 -66 -4.5t-80 -3.5q-24 0 -72 2t-73 2q-34 0 -96.5 -3.5
t-81.5 -4.5q-122 -4 -181 -2q-92 7 -155 49q-72 43 -72 135q0 47 21 82.5t63 79.5q48 46 94 94q15 15 45 47.5t45 48.5q14 14 29 30t33 36t29 31l92 92q17 17 51.5 48.5t50.5 47.5q16 17 50.5 47.5t51.5 46.5q17 17 47 53t46 52q15 16 50.5 46t51.5 46q17 16 46.5 53
t45.5 53l63 60t62 61q19 19 62.5 57t64.5 60q24 25 8.5 58.5t-49.5 33.5q-28 0 -85 -2t-85 -2q-29 0 -86 -1t-84 -1q-28 0 -86 4t-86 4q-45 0 -135 -4q-22 0 -67.5 1t-69.5 1q-15 -1 -42.5 -3t-50 -3t-42.5 0q-97 0 -162 39q-79 46 -82 139q0 90 63 137q49 35 152 35
q24 0 73 3t74 3t75 -1t75 -1q24 0 73.5 -4t75.5 -4q22 0 69 7t71 7q23 0 70.5 -2t70.5 -2q26 1 74.5 -0.5t64.5 -1.5q24 0 71 -3t71 -3t70 1t69 1q21 0 63 6t64 6h127q104 0 151 -14q81 -25 109 -104q21 -50 4 -111q-9 -32 -32 -60t-61.5 -60t-51.5 -46q-16 -16 -56.5 -53.5
t-60.5 -58.5q-17 -17 -49 -56t-50 -57q-18 -19 -55 -52.5t-55 -51.5l-105 -107q-19 -20 -57 -53.5t-53 -48.5q-9 -10 -45 -50.5t-58 -60.5q-11 -12 -30.5 -33t-35.5 -38t-32 -33q-17 -17 -100 -101q-19 -19 -56 -50.5t-51 -45.5q-25 -27 -31 -64t7 -65q12 -32 42 -51.5
t66 -18.5q36 0 71.5 4t70.5 4t69.5 -2t69.5 -2t69.5 -2t69.5 -2q18 0 69.5 -1t69.5 1h142q35 0 69.5 -2t69.5 -2z" />
    <glyph glyph-name="braceleft" unicode="{" horiz-adv-x="794" 
d="M463 -18q6 0 12.5 1t14 3.5t12 4.5t13 7t11.5 6.5t13 8t12 7.5q58 36 74 103q23 86 -9 135q-8 14 -37 52.5t-38 60.5q-20 44 -33 131q-16 91 -4 127q3 9 18.5 32.5t20.5 38.5q24 59 41 146q14 71 10 110q-12 80 -31 113q-4 6 -17 17t-14 12q70 101 62 205q-2 24 -9 49.5
t-18 55.5t-16 46q-5 21 -7 43.5t-2.5 53t-0.5 40.5q-4 94 16 146q29 63 76 127q48 69 37 127q-9 67 -72 114q-65 48 -131 39q-61 -8 -113 -78q-56 -77 -73 -108q-48 -86 -60 -119q-13 -36 -31 -131q-9 -65 -6 -131q3 -70 23 -160q2 -7 7.5 -22t10 -28.5t8 -28.5t2 -28
t-7.5 -22q-15 -22 -61 -55q-8 -6 -15 -13.5t-11.5 -13.5t-7.5 -16t-5 -15.5t-2.5 -17.5t-1 -17t1.5 -19.5t2.5 -18.5t2.5 -20.5t3 -20.5q18 -107 113 -160q-60 -164 -64 -180q-21 -68 -24 -139q-4 -92 6 -140q14 -99 26 -133q8 -23 32.5 -62t31.5 -54q7 -14 25 -57t32 -66
q25 -40 66.5 -64t85.5 -24z" />
    <glyph glyph-name="braceright" unicode="}" horiz-adv-x="794" 
d="M332 -18q44 0 85 24t66 64q14 23 32.5 66.5t25.5 56.5q7 15 31 54t32 62q14 39 27 133q10 48 6 140q-3 67 -25 139l-63 180q95 53 113 160q1 4 3 20.5t2.5 20.5t2.5 18.5t1.5 19.5t-1 17t-2.5 17.5t-5 15.5t-7.5 16t-11.5 13.5t-15 13.5q-48 35 -62 55q-10 8 -7.5 29
t6.5 35.5t12 35.5t10 29q19 85 22 160q3 66 -6 131q-18 95 -31 131q-14 38 -59 119q-14 25 -74 108q-52 70 -112 78q-66 9 -131 -39q-63 -47 -72 -114q-11 -58 37 -127q47 -64 76 -127q20 -52 16 -146q0 -10 -0.5 -40.5t-2.5 -53t-7 -43.5q-5 -16 -16 -46t-18 -55.5
t-9 -49.5q-8 -106 61 -205q-1 -1 -14 -12t-17 -17q-17 -30 -30 -113q-4 -39 10 -110q17 -87 41 -146q5 -15 20.5 -38.5t18.5 -32.5q12 -36 -4 -127q-13 -87 -33 -131q-9 -22 -38 -60.5t-38 -52.5q-31 -48 -8 -135q16 -67 74 -103q2 -1 12 -7.5t13 -8t11.5 -6.5t13 -7
t12 -4.5t14 -3.5t12.5 -1z" />
    <glyph glyph-name="asciitilde" unicode="~" horiz-adv-x="1413" 
d="M266 872q37 0 71.5 17t53.5 49q0 1 3 5t4.5 5.5t5 6t5.5 7t6 7t7.5 7.5t8 7t9 7t10 6t11.5 5q50 18 110 -6q2 -1 16.5 -5t22.5 -11q54 -46 133 -72q102 -33 177 -28q78 4 120 18q44 14 111 55q59 39 96 76q43 40 43 100q0 62 -41 103q-43 43 -100 43q-68 0 -105 -37
q-75 -64 -139 -68q-41 0 -74 9q-10 4 -17 7.5t-14.5 10t-13.5 10.5q-54 39 -110 58q-56 28 -105 32q-29 1 -34 2t-35.5 -3t-38.5 -5q-7 -1 -31.5 -3t-41.5 -5t-34 -8q-59 -25 -120 -76q-47 -39 -89 -108q-32 -52 -20 -107q14 -62 61 -90q33 -21 78 -21z" />
    <glyph glyph-name="exclamdown" unicode="&#xa1;" horiz-adv-x="610" 
d="M305 1651q-99 0 -149 80q-29 48 -23 110q6 58 49 101q53 53 123 53q80 0 131 -64q49 -57 39 -133q-10 -75 -72 -119q-41 -28 -98 -28zM305 1540q78 0 125 -47q53 -56 53 -125q0 -36 1 -71.5t1 -71.5q0 -35 -1 -70.5t-1 -71.5t-7 -71.5t-7 -71.5q0 -35 9 -70t9 -71t-2 -72
t-2 -72q0 -35 -3 -70t-3 -71t1 -71.5t1 -71.5q0 -35 3 -70.5t3 -71.5q0 -66 -57 -123q-46 -49 -123 -49q-76 0 -123 47q-45 45 -45 125q0 36 -7 71.5t-7 70.5q0 36 8 71.5t8 71.5t-6 71t-6 70q0 36 -1 72t-1 72t1 71t1 70q0 36 2 71.5t2 71.5t1 71.5t1 70.5v143q0 77 49 123
q49 49 123 49z" />
    <glyph glyph-name="sterling" unicode="&#xa3;" horiz-adv-x="1828" 
d="M1614 416q4 -3 24.5 -16t31.5 -23t18 -23q21 -39 19 -87.5t-26 -86.5q-41 -65 -112 -78q-67 -15 -133 29q-64 38 -154 82q-79 40 -166 49q-93 8 -137 6q-81 -7 -135 -22q-75 -17 -129 -43q-17 -8 -39.5 -27t-32.5 -24q-46 -26 -74 -37q-38 -17 -86 -17q-60 0 -118 45
q-75 61 -78 144q0 53 12 90q6 17 26 48t27 44q28 52 60 154q32 94 32 157q0 47 -14 104t-45 64q-34 5 -61 1t-60.5 -3.5t-58.5 12.5q-38 15 -60.5 48t-21.5 73q0 54 39.5 92.5t95.5 38.5q14 0 27 -4t26 -4q17 0 24 26.5t4.5 54t0.5 44.5q7 88 22 146q4 16 11.5 34.5t13.5 31
t16 34t15 31.5q24 56 69 122q79 103 119 141q13 12 27 23q26 20 119 68q94 46 125 53q95 25 135 27q20 1 41 -1t50.5 -7.5t39.5 -6.5q43 -6 125 -38q65 -22 116 -54q79 -46 109 -73q29 -25 90 -95q8 -11 39.5 -45t44.5 -57q38 -62 16 -135q-21 -74 -84 -111q-51 -31 -133 -8
q-64 18 -102 80q-48 82 -154 145q-93 57 -180 54q-67 -5 -149 -56q-86 -55 -119 -104q-53 -71 -68 -199q0 -3 -4 -23.5t-4.5 -32t0.5 -28t9 -25t22 -8.5h10q10 1 27 1.5t37.5 1t46 1t49.5 0.5q55 0 94 -41.5t37 -97.5q0 -55 -38.5 -90t-94.5 -35q-21 0 -43 -5t-43 -5
q-11 0 -19.5 -6.5t-5.5 -15.5q2 -10 9.5 -38.5t11.5 -52t4 -47.5q0 -45 -17 -141q-3 -19 8.5 -31.5t30.5 -9.5q20 3 58 6t49 4q9 1 55 5t55 3.5t54 -0.5q46 -3 159 -30q43 -10 156 -54q104 -43 149 -69q11 -7 30 -24t28 -23z" />
    <glyph glyph-name="currency" unicode="&#xa4;" horiz-adv-x="2293" 
 />
    <glyph glyph-name="yen" unicode="&#xa5;" horiz-adv-x="2293" 
 />
    <glyph glyph-name="copyright" unicode="&#xa9;" horiz-adv-x="1349" 
d="M676 487q41 0 110 15q12 2 26.5 6.5t24.5 8.5t26.5 11.5t25.5 10.5q58 25 94 47q35 24 80 69q48 44 70 80q19 27 47 94q25 61 34 105q13 76 13 108q0 62 -8 111q-9 38 -35 104q-26 61 -47 95q-28 43 -70 82q-17 19 -86 63q-9 6 -27 18.5t-33 22t-30 14.5q-44 19 -107 29
q-35 8 -108 8q-86 0 -111 -4q-50 -11 -104 -33q-39 -17 -92 -53q-24 -15 -78 -69t-72 -80q-30 -48 -47 -95q-26 -60 -35 -104q-14 -82 -14 -109q0 -64 10 -110q8 -46 33 -105q11 -27 55 -90q37 -57 66 -84q27 -29 82 -67q76 -47 92 -54q34 -14 106 -26q83 -19 109 -19z
M676 1407q55 0 94 -10q47 -11 90 -35q29 -17 74 -62q40 -40 57 -75q37 -62 43 -86q6 -23 6 -97q0 -63 -8 -94q-12 -51 -35 -92q-14 -27 -63 -72q-39 -39 -76 -57q-50 -30 -86 -39q-70 -18 -96 -18q-34 0 -96 16q-52 13 -91 35q-31 18 -75 59q-30 32 -56 80q-20 34 -34 88
q-13 50 -13 94q0 74 6 97q7 26 41 88q29 49 58 78q26 26 78 53q7 4 20.5 12t22 13t20.5 10t23 8q23 6 96 6zM678 711q26 0 76 8q11 3 22.5 7.5t25.5 11t23 10.5q72 38 115 90q23 31 18 69.5t-34 61.5t-67.5 17.5t-61.5 -34.5q-48 -61 -117 -61q-62 0 -107 45q-41 41 -41 106
q0 66 41 107t107 41t110 -47q25 -28 63 -30t67 24q27 24 28 62t-24 65q-28 32 -70 59q-52 31 -82 39q-31 10 -92 10q-50 0 -86 -10q-29 -6 -80 -33q-35 -20 -66 -55q-41 -41 -55 -66q-22 -38 -33 -80q-10 -45 -10 -86q0 -42 12 -86q10 -47 31 -79q14 -25 55 -66
q34 -34 68 -53q52 -29 78 -35q43 -12 86 -12z" />
    <glyph glyph-name="registered" unicode="&#xae;" horiz-adv-x="2293" 
 />
    <glyph glyph-name="questiondown" unicode="&#xbf;" horiz-adv-x="1630" 
d="M825 1655q-51 0 -95 28.5t-66 75.5q-15 43 -15 70q0 71 51 125q52 49 125 49q70 0 121 -51t51 -123q0 -63 -39 -111q-41 -47 -100 -59q-20 -4 -33 -4zM1409 307q-73 -107 -135 -153q-59 -41 -158 -76q-40 -12 -110 -25q-55 -9 -113 -14q-63 -4 -115 -2q-99 11 -116 14
q-35 9 -119 43q-52 22 -111 60q-39 26 -96 79q-65 58 -94 101q-47 64 -70 119q-29 67 -45 131q-17 78 20 135q38 60 111 76q62 16 131 -25q62 -38 76 -106q28 -114 104 -185q58 -56 140 -80q77 -23 159 -18q62 4 133 29q82 27 119 84q36 55 39 120q3 66 -29 125
q-15 27 -38 47.5t-68 47.5q-5 3 -32 18.5t-40 23t-35 23t-40 31.5q-71 64 -115 133q-46 79 -70 170q-28 95 -33 180q-3 78 66 137q51 40 117 37q84 -8 119 -43q46 -46 49 -119q3 -102 51 -178q6 -10 13.5 -19.5t13.5 -16.5t16 -15.5t15 -12.5t18 -12.5t17.5 -11t20.5 -12
t21 -12.5q67 -39 135 -101q56 -50 101 -133q45 -81 57 -143q21 -88 18 -156q-1 -39 -34 -153q-22 -77 -64 -142z" />
    <glyph glyph-name="agrave" unicode="&#xe0;" horiz-adv-x="2134" 
d="M1292 1985q43 -3 79.5 22.5t51.5 69.5q19 50 -2 108q-19 57 -73 78q-24 10 -51.5 20.5t-53.5 22.5q-53 20 -106 45q-30 11 -57.5 24.5t-47.5 22.5q-26 10 -54.5 18.5t-53.5 18.5q-55 25 -103 0q-52 -22 -71 -78q-18 -60 0 -110q21 -53 75 -78q60 -22 107 -43l104 -45
q26 -12 55 -22t54 -21q16 -6 46 -17t60 -24q1 0 17 -6t24 -6zM1989 252q34 -74 14 -133q-22 -69 -90 -105q-30 -12 -80 -12q-48 0 -89.5 26.5t-64.5 71.5l-65 133q-18 36 -49.5 52t-94.5 24q-23 6 -67.5 2t-67.5 -4q-35 0 -69 3t-68 3h-137q-30 0 -47.5 -0.5t-40.5 -1.5
t-49 -2q-34 0 -68 1t-68 1q-26 0 -52 5t-36 5.5t-49 -8.5q-22 -8 -35 -13t-26 -15t-17 -13t-20.5 -22.5t-24.5 -28.5q-22 -24 -30 -39.5t-15.5 -39.5t-19.5 -48q-23 -44 -67.5 -70t-92.5 -26q-8 0 -15.5 1.5t-16 5t-14 6t-16 7.5t-14.5 7q-79 42 -96 94q-23 67 10 137
l66 127q40 84 63 129q17 34 36 65t34 60q4 8 61 129q25 47 64 127q15 29 35.5 60.5t36.5 64.5q18 34 33 68t28 61q16 31 30 64t31 65q14 28 22.5 44.5t18.5 38t23 46.5q58 110 65 125q17 33 31.5 65.5t30.5 65.5q18 35 33.5 68.5t27.5 58.5q38 72 117 92q59 18 123 -6
q60 -26 88 -86q10 -21 27.5 -64t27.5 -63t34 -60t34 -61t27 -65t26 -64q9 -19 34.5 -58t35.5 -61q1 -1 61 -131q31 -57 64 -129q57 -107 67 -129l64 -129q12 -23 27 -69.5t24 -65.5q11 -21 38.5 -61.5t39.5 -61.5q9 -18 24.5 -65t28.5 -70q20 -43 66 -129zM827 659
q38 0 76.5 3.5t77.5 3.5h154h153q39 0 61 31.5t5 66.5q-5 8 -13 16.5t-12 18.5q-18 36 -31 73t-30 72q-18 35 -40 68.5t-40 68.5q-13 27 -21 53t-16.5 45t-30.5 46q-25 31 -50 31t-40 -29q-3 -5 -4 -12t-4 -13q-44 -89 -72 -141q-18 -36 -42 -68.5t-42 -68.5
q-19 -36 -30 -75t-29 -75q-5 -10 -15.5 -17.5t-15.5 -17.5q-13 -26 4.5 -53t46.5 -27z" />
    <glyph glyph-name="aacute" unicode="&#xe1;" horiz-adv-x="2134" 
d="M864 1985q6 0 13 2t15 5.5t13 4.5q30 13 59.5 23.5t47.5 17.5q25 11 53.5 21t54.5 22l105 45q51 23 106 43q55 25 76 78q18 50 0 110q-19 56 -72 78q-48 25 -102 0q-26 -10 -54.5 -18.5t-54.5 -18.5q-21 -9 -47.5 -22.5t-56.5 -24.5q-49 -23 -107 -45q-27 -12 -54 -22.5
t-50 -20.5q-55 -22 -74 -78q-21 -58 -2 -108q15 -44 51.5 -69.5t79.5 -22.5zM1989 252q34 -74 14 -133q-22 -69 -90 -105q-30 -12 -80 -12q-48 0 -89.5 26.5t-64.5 71.5l-65 133q-18 36 -49.5 52t-94.5 24q-23 6 -67.5 2t-67.5 -4q-35 0 -69 3t-68 3h-137q-30 0 -47.5 -0.5
t-40.5 -1.5t-49 -2q-34 0 -68 1t-68 1q-26 0 -52 5t-36 5.5t-49 -8.5q-22 -8 -35 -13t-26 -15t-17 -13t-20.5 -22.5t-24.5 -28.5q-22 -24 -30 -39.5t-15.5 -39.5t-19.5 -48q-23 -44 -67.5 -70t-92.5 -26q-8 0 -15.5 1.5t-16 5t-14 6t-16 7.5t-14.5 7q-79 42 -96 94
q-23 67 10 137l66 127q40 84 63 129q17 34 36 65t34 60q4 8 61 129q25 47 64 127q15 29 35.5 60.5t36.5 64.5q18 34 33 68t28 61q16 31 30 64t31 65q14 28 22.5 44.5t18.5 38t23 46.5q58 110 65 125q17 33 31.5 65.5t30.5 65.5q18 35 33.5 68.5t27.5 58.5q38 72 117 92
q59 18 123 -6q60 -26 88 -86q10 -21 27.5 -64t27.5 -63t34 -60t34 -61t27 -65t26 -64q9 -19 34.5 -58t35.5 -61q1 -1 61 -131q31 -57 64 -129q57 -107 67 -129l64 -129q12 -23 27 -69.5t24 -65.5q11 -21 38.5 -61.5t39.5 -61.5q9 -18 24.5 -65t28.5 -70q20 -43 66 -129z
M827 659q38 0 76.5 3.5t77.5 3.5h154h153q39 0 61 31.5t5 66.5q-5 8 -13 16.5t-12 18.5q-18 36 -31 73t-30 72q-18 35 -40 68.5t-40 68.5q-13 27 -21 53t-16.5 45t-30.5 46q-25 31 -50 31t-40 -29q-3 -5 -4 -12t-4 -13q-44 -89 -72 -141q-18 -36 -42 -68.5t-42 -68.5
q-19 -36 -30 -75t-29 -75q-5 -10 -15.5 -17.5t-15.5 -17.5q-13 -26 4.5 -53t46.5 -27z" />
    <glyph glyph-name="acircumflex" unicode="&#xe2;" horiz-adv-x="2134" 
d="M1460 2234q50 -32 62 -82q8 -44 -23 -98q-38 -59 -104 -59q-39 0 -70 16q-20 14 -37 26.5t-31.5 23t-39.5 26.5q-29 19 -55.5 39.5t-49.5 36.5q-39 25 -80 -4q-27 -20 -52.5 -39t-49.5 -37q-26 -17 -53 -33t-52 -33q-30 -24 -69 -24q-63 0 -101 59q-32 46 -22 96
q10 60 51 88q3 2 35.5 24.5t48.5 33.5t44 33.5t38 29.5q14 10 58 39t67 47q39 25 51 29q59 20 135 -33q35 -23 101 -69q62 -41 98 -68q43 -28 100 -68zM1989 252q34 -74 14 -133q-22 -69 -90 -105q-30 -12 -80 -12q-48 0 -89.5 26.5t-64.5 71.5l-65 133q-18 36 -49.5 52
t-94.5 24q-23 6 -67.5 2t-67.5 -4q-35 0 -69 3t-68 3h-137q-30 0 -47.5 -0.5t-40.5 -1.5t-49 -2q-34 0 -68 1t-68 1q-26 0 -52 5t-36 5.5t-49 -8.5q-22 -8 -35 -13t-26 -15t-17 -13t-20.5 -22.5t-24.5 -28.5q-22 -24 -30 -39.5t-15.5 -39.5t-19.5 -48q-23 -44 -67.5 -70
t-92.5 -26q-8 0 -15.5 1.5t-16 5t-14 6t-16 7.5t-14.5 7q-79 42 -96 94q-23 67 10 137l66 127q40 84 63 129q17 34 36 65t34 60q4 8 61 129q25 47 64 127q15 29 35.5 60.5t36.5 64.5q18 34 33 68t28 61q16 31 30 64t31 65q14 28 22.5 44.5t18.5 38t23 46.5q58 110 65 125
q17 33 31.5 65.5t30.5 65.5q18 35 33.5 68.5t27.5 58.5q38 72 117 92q59 18 123 -6q60 -26 88 -86q10 -21 27.5 -64t27.5 -63t34 -60t34 -61t27 -65t26 -64q9 -19 34.5 -58t35.5 -61q1 -1 61 -131q31 -57 64 -129q57 -107 67 -129l64 -129q12 -23 27 -69.5t24 -65.5
q11 -21 38.5 -61.5t39.5 -61.5q9 -18 24.5 -65t28.5 -70q20 -43 66 -129zM827 659q38 0 76.5 3.5t77.5 3.5h154h153q39 0 61 31.5t5 66.5q-5 8 -13 16.5t-12 18.5q-18 36 -31 73t-30 72q-18 35 -40 68.5t-40 68.5q-13 27 -21 53t-16.5 45t-30.5 46q-25 31 -50 31t-40 -29
q-3 -5 -4 -12t-4 -13q-44 -89 -72 -141q-18 -36 -42 -68.5t-42 -68.5q-19 -36 -30 -75t-29 -75q-5 -10 -15.5 -17.5t-15.5 -17.5q-13 -26 4.5 -53t46.5 -27z" />
    <glyph glyph-name="adieresis" unicode="&#xe4;" horiz-adv-x="2134" 
d="M963 2212q-9 94 -51.5 133t-118.5 39q-72 0 -123.5 -50t-51.5 -122q6 -70 54.5 -117t120.5 -53q70 -6 120 46t50 124zM1505 2212q-9 94 -51.5 133t-118.5 39q-72 0 -123 -50t-51 -122q6 -70 54 -117t120 -53q70 -6 120 46t50 124zM1989 252q34 -74 14 -133
q-22 -69 -90 -105q-30 -12 -80 -12q-48 0 -89.5 26.5t-64.5 71.5l-65 133q-18 36 -49.5 52t-94.5 24q-23 6 -67.5 2t-67.5 -4q-35 0 -69 3t-68 3h-137q-30 0 -47.5 -0.5t-40.5 -1.5t-49 -2q-34 0 -68 1t-68 1q-26 0 -52 5t-36 5.5t-49 -8.5q-22 -8 -35 -13t-26 -15t-17 -13
t-20.5 -22.5t-24.5 -28.5q-22 -24 -30 -39.5t-15.5 -39.5t-19.5 -48q-23 -44 -67.5 -70t-92.5 -26q-8 0 -15.5 1.5t-16 5t-14 6t-16 7.5t-14.5 7q-79 42 -96 94q-23 67 10 137l66 127q40 84 63 129q17 34 36 65t34 60q4 8 61 129q25 47 64 127q15 29 35.5 60.5t36.5 64.5
q18 34 33 68t28 61q16 31 30 64t31 65q14 28 22.5 44.5t18.5 38t23 46.5q58 110 65 125q17 33 31.5 65.5t30.5 65.5q18 35 33.5 68.5t27.5 58.5q38 72 117 92q59 18 123 -6q60 -26 88 -86q10 -21 27.5 -64t27.5 -63t34 -60t34 -61t27 -65t26 -64q9 -19 34.5 -58t35.5 -61
q1 -1 61 -131q31 -57 64 -129q57 -107 67 -129l64 -129q12 -23 27 -69.5t24 -65.5q11 -21 38.5 -61.5t39.5 -61.5q9 -18 24.5 -65t28.5 -70q20 -43 66 -129zM827 659q38 0 76.5 3.5t77.5 3.5h154h153q39 0 61 31.5t5 66.5q-5 8 -13 16.5t-12 18.5q-18 36 -31 73t-30 72
q-18 35 -40 68.5t-40 68.5q-13 27 -21 53t-16.5 45t-30.5 46q-25 31 -50 31t-40 -29q-3 -5 -4 -12t-4 -13q-44 -89 -72 -141q-18 -36 -42 -68.5t-42 -68.5q-19 -36 -30 -75t-29 -75q-5 -10 -15.5 -17.5t-15.5 -17.5q-13 -26 4.5 -53t46.5 -27z" />
    <glyph glyph-name="ae" unicode="&#xe6;" horiz-adv-x="3065" 
d="M2773 348q75 0 109 -47q52 -69 49 -127q0 -55 -64 -119q-43 -43 -121 -43q-1 0 -2 2t-2 2h-129q-21 0 -64 -7t-65 -7q-23 0 -66.5 2t-64.5 2h-129q-24 0 -71 1t-70 1t-69 -6t-70 -6t-71.5 5t-70.5 5q-25 -1 -72 3.5t-67 4.5q-23 0 -70 -3t-71 -3t-71 -1t-71 -1
q-17 0 -50 -2.5t-60.5 -2.5t-50.5 5q-50 10 -93 68q-43 53 -43 106q9 57 9 137q-23 12 -42 12t-31.5 -7t-34.5 -14t-46 -7q-37 0 -73.5 6t-73.5 6q-16 0 -36 0.5t-27 0.5t-20.5 -1.5t-26.5 -5t-34 -10.5q-9 -3 -27.5 -8.5t-22.5 -7l-16 -6t-16 -8t-14 -10.5t-17.5 -15
t-19.5 -21q-21 -25 -30 -40t-19 -40t-21 -47q-25 -47 -64.5 -77.5t-84.5 -30.5q-34 0 -80 22q-29 15 -45 42.5t-29 68.5q-30 87 -6 131q16 35 38.5 64.5t37.5 58.5q17 31 28 65t27 66q16 34 35.5 64.5t34.5 60.5q17 32 35.5 63t34.5 62q16 32 25 68t26 67q16 31 29 64.5
t30 64.5q16 33 35 63.5t35 63.5q16 31 33 62t32 63q16 30 38 60t38 63q17 32 28 66.5t27 66.5t35 62t35 63q17 31 27.5 65t27.5 66q35 71 113 92q39 12 110 16q21 0 57.5 -7.5t53.5 -8.5q5 1 17 2t18 2q20 1 63.5 12t65.5 11q25 0 71.5 -3t57.5 -4q22 0 65 -5t64 -5
q25 0 72.5 -1t70.5 -1q24 0 72 -2t72 -2q23 0 70.5 10t72.5 10q23 0 70 -10t71 -10q25 0 73 5t71 5q22 0 65 3t64 3q20 0 62.5 -1t64.5 -1t65 2t64 2q54 0 119 -61q59 -59 61 -117q0 -52 -51 -123q-40 -53 -103 -53q-35 0 -70 2t-71 2q-35 0 -70 2t-71 2t-71.5 -10
t-70.5 -10q-36 0 -71 8t-70 8q-36 0 -71 1t-70 1q-36 0 -72 -7t-72 -7q-35 0 -70 -2t-71 -2h-141q-103 0 -158 -55q-55 -52 -55 -158q0 -15 -3 -29t-3 -28q0 -62 59 -121q23 -23 36.5 -35t37.5 -24.5t47 -12.5q37 0 73.5 9t73.5 9q36 0 72.5 -9t73.5 -9h145q37 0 73.5 9
t72.5 9q37 0 73.5 -4t73.5 -4q36 0 72 2t73 2q80 0 127 -47q15 -14 23.5 -37.5t10.5 -40.5t3 -49q3 -61 -37 -121q-51 -67 -100 -67q-38 0 -76.5 6t-77.5 6t-77 -4t-76 -4q-39 0 -78 8t-78 8h-153q-39 0 -77.5 -4t-76.5 -4q-39 0 -78 3t-78 3q-68 0 -120 -49
q-52 -52 -52 -121q0 -13 4.5 -24.5t4.5 -22.5q0 -71 47 -121q39 -39 120 -39q37 0 74 1t74 1t73.5 -8t73.5 -8q36 0 72.5 6t73.5 6t73.5 1t73.5 1t73.5 -4t72.5 -4q37 0 73.5 1t73.5 1t74 -4t74 -4q36 0 72 1t73 1zM819 649q31 0 65 -2.5t70 -1.5q23 1 47 -2.5t41 -2
t45 12.5q0 23 2.5 74.5t2.5 77.5q0 23 -5.5 72.5t-5.5 74.5q0 24 -1 75t-1 75q0 26 8.5 77t8.5 74q-24 3 -44.5 -5t-27.5 -27l-74 -152q-18 -36 -40.5 -71.5t-41.5 -75.5q-21 -41 -39.5 -80t-33.5 -70q-5 -10 -14.5 -18.5t-14.5 -18.5q-13 -26 5.5 -56t47.5 -30z" />
    <glyph glyph-name="egrave" unicode="&#xe8;" horiz-adv-x="2097" 
d="M1249 2034q43 -3 79.5 22.5t51.5 69.5q19 50 -2 108q-19 57 -73 78q-24 10 -51.5 20.5t-53.5 22.5q-53 20 -106 45q-30 11 -57.5 24.5t-47.5 22.5q-26 10 -54.5 18.5t-53.5 18.5q-55 25 -103 0q-52 -22 -71 -78q-18 -60 0 -110q21 -53 75 -78q60 -22 107 -43l104 -45
q26 -12 55 -22t54 -21q16 -6 46 -17t60 -24q1 0 17 -6t24 -6zM1823 344q66 0 104 -53q45 -67 45 -123q-3 -76 -53 -123q-39 -39 -123 -39q-1 0 -2 -1t-2 -1q-22 0 -65 -6t-64 -6t-64 5t-65 5t-66 -4t-65 -4t-64 3t-65 3q-24 0 -71 2t-70 2q-22 0 -69 -6t-71 -6t-71 4t-70 4
q-24 0 -70 -3t-69 -3t-71 5t-71 5q-24 0 -70.5 -2t-68.5 -2q-9 0 -39 -0.5t-44.5 0t-37.5 2.5t-41 6q-55 11 -94 60q-43 53 -43 106q-4 58 -4 152q0 21 6 72t6 81q0 24 1 75.5t1 78.5q0 24 -3 75t-3 78q0 25 -1 76.5t-1 77.5t-3 77t-3 77t6 77t6 76q0 27 -5 78t-5 74
q0 30 2 81.5t2 71.5q0 49 -2 83.5t-2 70.5q0 55 62 117q27 29 57 39.5t76 13.5q43 2 129 2q18 0 62 3.5t67 2.5q21 0 64.5 -1t66.5 -1t70 -1t71 -1q23 0 71 1t72 1q23 0 71 -4t73 -4q23 0 70 6t71 6q25 0 72.5 -3t70.5 -3q21 0 64 -1t65 -1t64 2t63 2t64 -1t65 -1
q67 0 121 -51q49 -46 52 -117q3 -64 -41 -125q-35 -53 -105 -53q-35 0 -70 -2t-71 -2q-35 0 -70.5 3t-71.5 3t-71 -4t-70 -4q-36 0 -71 1t-70 1q-36 0 -71 1t-70 1q-36 0 -71.5 3t-70.5 3q-36 0 -71.5 -5t-71.5 -5q-35 0 -70 4t-71 4q-82 0 -156 -70q-70 -74 -70 -155
q0 -15 -1 -29t-1 -29q0 -77 56 -133q58 -55 135 -55h135q35 0 69 2t68 2q35 0 69 -1t68 -1q82 0 125 -43q50 -50 53 -123q0 -50 -49 -123q-45 -63 -102 -63q-37 0 -73.5 6t-80.5 6h-153q-37 0 -75.5 -3t-58.5 -6l-20 -3q-84 0 -121 -45q-35 -40 -39 -127q-4 -84 29 -129
q24 -31 60.5 -50.5t74.5 -19.5l7 1q8 1 21 2t30 2t41 2t49 1q20 0 69 -6t78 -6q22 0 71 7t75 7q24 0 73 -1t74 -1t73.5 -6t71.5 -6q26 0 76 3t72 3h147q46 0 79 -1t67 -1z" />
    <glyph glyph-name="eacute" unicode="&#xe9;" horiz-adv-x="2097" 
d="M854 2034q6 0 13 2t15 5.5t13 4.5q23 10 37.5 15.5t32 11.5t36.5 14q25 11 54 21t55 22l104 45q47 21 107 43q55 25 76 78q18 50 0 110q-19 56 -72 78q-48 25 -102 0q-26 -10 -54.5 -18.5t-54.5 -18.5q-21 -9 -47.5 -22.5t-56.5 -24.5q-49 -23 -107 -45
q-27 -12 -54 -22.5t-50 -20.5q-55 -22 -74 -78q-21 -58 -2 -108q15 -44 51.5 -69.5t79.5 -22.5zM1823 344q66 0 104 -53q45 -67 45 -123q-3 -76 -53 -123q-39 -39 -123 -39q-1 0 -2 -1t-2 -1q-22 0 -65 -6t-64 -6t-64 5t-65 5t-66 -4t-65 -4t-64 3t-65 3q-24 0 -71 2t-70 2
q-22 0 -69 -6t-71 -6t-71 4t-70 4q-24 0 -70 -3t-69 -3t-71 5t-71 5q-24 0 -70.5 -2t-68.5 -2q-9 0 -39 -0.5t-44.5 0t-37.5 2.5t-41 6q-55 11 -94 60q-43 53 -43 106q-4 58 -4 152q0 21 6 72t6 81q0 24 1 75.5t1 78.5q0 24 -3 75t-3 78q0 25 -1 76.5t-1 77.5t-3 77t-3 77
t6 77t6 76q0 27 -5 78t-5 74q0 30 2 81.5t2 71.5q0 49 -2 83.5t-2 70.5q0 55 62 117q27 29 57 39.5t76 13.5q43 2 129 2q18 0 62 3.5t67 2.5q21 0 64.5 -1t66.5 -1t70 -1t71 -1q23 0 71 1t72 1q23 0 71 -4t73 -4q23 0 70 6t71 6q25 0 72.5 -3t70.5 -3q21 0 64 -1t65 -1t64 2
t63 2t64 -1t65 -1q67 0 121 -51q49 -46 52 -117q3 -64 -41 -125q-35 -53 -105 -53q-35 0 -70 -2t-71 -2q-35 0 -70.5 3t-71.5 3t-71 -4t-70 -4q-36 0 -71 1t-70 1q-36 0 -71 1t-70 1q-36 0 -71.5 3t-70.5 3q-36 0 -71.5 -5t-71.5 -5q-35 0 -70 4t-71 4q-82 0 -156 -70
q-70 -74 -70 -155q0 -15 -1 -29t-1 -29q0 -77 56 -133q58 -55 135 -55h135q35 0 69 2t68 2q35 0 69 -1t68 -1q82 0 125 -43q50 -50 53 -123q0 -50 -49 -123q-45 -63 -102 -63q-37 0 -73.5 6t-80.5 6h-153q-37 0 -75.5 -3t-58.5 -6l-20 -3q-84 0 -121 -45q-35 -40 -39 -127
q-4 -84 29 -129q24 -31 60.5 -50.5t74.5 -19.5l7 1q8 1 21 2t30 2t41 2t49 1q20 0 69 -6t78 -6q22 0 71 7t75 7q24 0 73 -1t74 -1t73.5 -6t71.5 -6q26 0 76 3t72 3h147q46 0 79 -1t67 -1z" />
    <glyph glyph-name="ecircumflex" unicode="&#xea;" horiz-adv-x="2097" 
d="M1450 2234q49 -31 61 -82q8 -46 -22 -98q-38 -59 -105 -59q-38 0 -69 16q-107 75 -109 76q-29 19 -54.5 39.5t-49.5 36.5q-39 25 -80 -4q-27 -20 -52.5 -39t-49.5 -37q-25 -17 -52 -33t-53 -33q-30 -24 -70 -24q-62 0 -100 59q-32 46 -22 96q10 60 51 88q3 2 35.5 24.5
t48.5 33.5t44 33.5t38 29.5q14 10 58 39t67 47q39 25 51 29q59 20 135 -33q17 -12 100 -69q70 -46 99 -68q43 -28 100 -68zM1823 344q66 0 104 -53q45 -67 45 -123q-3 -76 -53 -123q-39 -39 -123 -39q-1 0 -2 -1t-2 -1q-22 0 -65 -6t-64 -6t-64 5t-65 5t-66 -4t-65 -4t-64 3
t-65 3q-24 0 -71 2t-70 2q-22 0 -69 -6t-71 -6t-71 4t-70 4q-24 0 -70 -3t-69 -3t-71 5t-71 5q-24 0 -70.5 -2t-68.5 -2q-9 0 -39 -0.5t-44.5 0t-37.5 2.5t-41 6q-55 11 -94 60q-43 53 -43 106q-4 58 -4 152q0 21 6 72t6 81q0 24 1 75.5t1 78.5q0 24 -3 75t-3 78
q0 25 -1 76.5t-1 77.5t-3 77t-3 77t6 77t6 76q0 27 -5 78t-5 74q0 30 2 81.5t2 71.5q0 49 -2 83.5t-2 70.5q0 55 62 117q27 29 57 39.5t76 13.5q43 2 129 2q18 0 62 3.5t67 2.5q21 0 64.5 -1t66.5 -1t70 -1t71 -1q23 0 71 1t72 1q23 0 71 -4t73 -4q23 0 70 6t71 6
q25 0 72.5 -3t70.5 -3q21 0 64 -1t65 -1t64 2t63 2t64 -1t65 -1q67 0 121 -51q49 -46 52 -117q3 -64 -41 -125q-35 -53 -105 -53q-35 0 -70 -2t-71 -2q-35 0 -70.5 3t-71.5 3t-71 -4t-70 -4q-36 0 -71 1t-70 1q-36 0 -71 1t-70 1q-36 0 -71.5 3t-70.5 3q-36 0 -71.5 -5
t-71.5 -5q-35 0 -70 4t-71 4q-82 0 -156 -70q-70 -74 -70 -155q0 -15 -1 -29t-1 -29q0 -77 56 -133q58 -55 135 -55h135q35 0 69 2t68 2q35 0 69 -1t68 -1q82 0 125 -43q50 -50 53 -123q0 -50 -49 -123q-45 -63 -102 -63q-37 0 -73.5 6t-80.5 6h-153q-37 0 -75.5 -3
t-58.5 -6l-20 -3q-84 0 -121 -45q-35 -40 -39 -127q-4 -84 29 -129q24 -31 60.5 -50.5t74.5 -19.5l7 1q8 1 21 2t30 2t41 2t49 1q20 0 69 -6t78 -6q22 0 71 7t75 7q24 0 73 -1t74 -1t73.5 -6t71.5 -6q26 0 76 3t72 3h147q46 0 79 -1t67 -1z" />
    <glyph glyph-name="edieresis" unicode="&#xeb;" horiz-adv-x="2097" 
d="M952 2212q-9 94 -51.5 133t-118.5 39q-72 0 -123 -50t-51 -122q6 -70 54 -117t120 -53q70 -6 120 46t50 124zM1495 2212q-9 94 -51.5 133t-118.5 39q-72 0 -123 -50t-51 -122q6 -70 54 -117t120 -53q70 -6 120 46t50 124zM1823 344q66 0 104 -53q45 -67 45 -123
q-3 -76 -53 -123q-39 -39 -123 -39q-1 0 -2 -1t-2 -1q-22 0 -65 -6t-64 -6t-64 5t-65 5t-66 -4t-65 -4t-64 3t-65 3q-24 0 -71 2t-70 2q-22 0 -69 -6t-71 -6t-71 4t-70 4q-24 0 -70 -3t-69 -3t-71 5t-71 5q-24 0 -70.5 -2t-68.5 -2q-9 0 -39 -0.5t-44.5 0t-37.5 2.5t-41 6
q-55 11 -94 60q-43 53 -43 106q-4 58 -4 152q0 21 6 72t6 81q0 24 1 75.5t1 78.5q0 24 -3 75t-3 78q0 25 -1 76.5t-1 77.5t-3 77t-3 77t6 77t6 76q0 27 -5 78t-5 74q0 30 2 81.5t2 71.5q0 49 -2 83.5t-2 70.5q0 55 62 117q27 29 57 39.5t76 13.5q43 2 129 2q18 0 62 3.5
t67 2.5q21 0 64.5 -1t66.5 -1t70 -1t71 -1q23 0 71 1t72 1q23 0 71 -4t73 -4q23 0 70 6t71 6q25 0 72.5 -3t70.5 -3q21 0 64 -1t65 -1t64 2t63 2t64 -1t65 -1q67 0 121 -51q49 -46 52 -117q3 -64 -41 -125q-35 -53 -105 -53q-35 0 -70 -2t-71 -2q-35 0 -70.5 3t-71.5 3
t-71 -4t-70 -4q-36 0 -71 1t-70 1q-36 0 -71 1t-70 1q-36 0 -71.5 3t-70.5 3q-36 0 -71.5 -5t-71.5 -5q-35 0 -70 4t-71 4q-82 0 -156 -70q-70 -74 -70 -155q0 -15 -1 -29t-1 -29q0 -77 56 -133q58 -55 135 -55h135q35 0 69 2t68 2q35 0 69 -1t68 -1q82 0 125 -43
q50 -50 53 -123q0 -50 -49 -123q-45 -63 -102 -63q-37 0 -73.5 6t-80.5 6h-153q-37 0 -75.5 -3t-58.5 -6l-20 -3q-84 0 -121 -45q-35 -40 -39 -127q-4 -84 29 -129q24 -31 60.5 -50.5t74.5 -19.5l7 1q8 1 21 2t30 2t41 2t49 1q20 0 69 -6t78 -6q22 0 71 7t75 7q24 0 73 -1
t74 -1t73.5 -6t71.5 -6q26 0 76 3t72 3h147q46 0 79 -1t67 -1z" />
    <glyph glyph-name="igrave" unicode="&#xec;" horiz-adv-x="937" 
d="M676 2034q43 -3 79.5 22.5t51.5 69.5q19 50 -2 108q-19 56 -74 78q-23 10 -50 20.5t-54 22.5q-58 22 -107 45q-30 11 -56.5 24.5t-47.5 22.5q-26 10 -54.5 18.5t-54.5 18.5q-54 25 -102 0q-53 -22 -72 -78q-18 -60 0 -110q21 -53 76 -78q55 -20 106 -43l105 -45
q26 -12 54.5 -22t53.5 -21q18 -7 47.5 -17.5t59.5 -23.5q1 0 17 -6t24 -6zM457 1880q66 0 118 -55q56 -56 56 -119q0 -38 1 -76t1 -76q0 -39 -4 -77t-4 -76t5 -76t5 -76q-2 -78 -2 -153q0 -38 -4 -76.5t-4 -77.5q0 -38 3 -75.5t3 -75.5q0 -39 1 -77.5t1 -76.5t-4 -76.5
t-4 -77.5q0 -38 2 -75.5t2 -75.5q0 -39 1 -77.5t1 -76.5q0 -61 -56 -121q-63 -59 -120 -59q-58 0 -121 59q-60 64 -60 121q0 39 4.5 77.5t4.5 76.5v153q0 38 1 76t1 76q0 39 -4.5 77.5t-4.5 76.5t2.5 75.5t2.5 75.5q0 39 2 77.5t2 76.5t-1 76t-1 77q0 38 -3.5 76t-3.5 76
q0 39 6.5 77t6.5 76t-5 76.5t-5 77.5q0 64 55 123q46 46 123 49z" />
    <glyph glyph-name="iacute" unicode="&#xed;" horiz-adv-x="937" 
d="M262 2034q6 0 13 2t15 5.5t13 4.5q30 13 59.5 23.5t47.5 17.5q25 11 53.5 21t54.5 22l105 45q51 23 106 43q55 25 76 78q18 50 0 110q-19 56 -72 78q-48 25 -102 0q-26 -10 -54.5 -18.5t-54.5 -18.5q-21 -9 -47.5 -22.5t-56.5 -24.5q-49 -23 -107 -45q-27 -12 -54 -22.5
t-50 -20.5q-55 -22 -74 -78q-21 -58 -2 -108q15 -44 51.5 -69.5t79.5 -22.5zM492 1880q66 0 118 -55q56 -56 56 -119q0 -38 1 -76t1 -76q0 -39 -4.5 -77t-4.5 -76t5.5 -76t5.5 -76q-2 -78 -2 -153q0 -38 -4.5 -76.5t-4.5 -77.5q0 -38 3.5 -75.5t3.5 -75.5q0 -39 1 -77.5
t1 -76.5t-4.5 -76.5t-4.5 -77.5q0 -38 2.5 -75.5t2.5 -75.5q0 -39 1 -77.5t1 -76.5q0 -61 -56 -121q-63 -59 -121 -59q-57 0 -120 59q-60 64 -60 121q0 39 4 77.5t4 76.5v153q0 38 1 76t1 76q0 39 -4 77.5t-4 76.5t2 75.5t2 75.5q0 39 2 77.5t2 76.5t-1 76t-1 77q0 38 -3 76
t-3 76q0 39 6.5 77t6.5 76t-5.5 76.5t-5.5 77.5q0 63 56 123q46 46 123 49z" />
    <glyph glyph-name="icircumflex" unicode="&#xee;" horiz-adv-x="1138" 
d="M952 2234q50 -32 62 -82q8 -44 -23 -98q-38 -59 -104 -59q-39 0 -70 16q-20 14 -37 26.5t-31.5 23t-39.5 26.5q-29 19 -55.5 39.5t-49.5 36.5q-39 25 -80 -4q-27 -20 -52.5 -39t-49.5 -37q-26 -17 -53 -33t-52 -33q-30 -24 -69 -24q-63 0 -101 59q-32 46 -22 96
q10 60 51 88q3 2 35.5 24.5t48.5 33.5t44 33.5t38 29.5q14 10 58 39t67 47q39 25 51 29q59 20 135 -33q35 -23 101 -69q62 -41 98 -68q43 -28 100 -68zM573 1880q67 0 119 -55q56 -56 56 -119q0 -38 1 -76t1 -76q0 -39 -4.5 -77t-4.5 -76t5.5 -76t5.5 -76q-2 -78 -2 -153
q0 -38 -4.5 -76.5t-4.5 -77.5q0 -38 3.5 -75.5t3.5 -75.5q0 -39 1 -77.5t1 -76.5t-4.5 -76.5t-4.5 -77.5q0 -38 2 -75.5t2 -75.5q0 -39 1.5 -77.5t1.5 -76.5q0 -61 -56 -121q-63 -59 -121 -59q-57 0 -120 59q-60 64 -60 121q0 39 4 77.5t4 76.5v153q0 38 1 76t1 76
q0 39 -4 77.5t-4 76.5t2 75.5t2 75.5q0 39 2 77.5t2 76.5t-1 76t-1 77q0 38 -3 76t-3 76q0 39 6.5 77t6.5 76t-5.5 76.5t-5.5 77.5q0 63 56 123q46 46 122 49z" />
    <glyph glyph-name="idieresis" unicode="&#xef;" horiz-adv-x="1132" 
d="M467 2212q-9 94 -51.5 133t-118.5 39q-72 0 -123 -50t-51 -122q6 -70 54 -117t120 -53q70 -6 120 46t50 124zM1010 2212q-9 94 -51.5 133t-118.5 39q-72 0 -123 -50t-51 -122q6 -70 54 -117t120 -53q70 -6 120 46t50 124zM573 1880q67 0 119 -55q56 -56 56 -119
q0 -38 1 -76t1 -76q0 -39 -4.5 -77t-4.5 -76t5.5 -76t5.5 -76q-2 -78 -2 -153q0 -38 -4.5 -76.5t-4.5 -77.5q0 -38 3.5 -75.5t3.5 -75.5q0 -39 1 -77.5t1 -76.5t-4.5 -76.5t-4.5 -77.5q0 -38 2 -75.5t2 -75.5q0 -39 1.5 -77.5t1.5 -76.5q0 -61 -56 -121q-63 -59 -121 -59
q-57 0 -120 59q-60 64 -60 121q0 39 4 77.5t4 76.5v153q0 38 1 76t1 76q0 39 -4 77.5t-4 76.5t2 75.5t2 75.5q0 39 2 77.5t2 76.5t-1 76t-1 77q0 38 -3 76t-3 76q0 39 6.5 77t6.5 76t-5.5 76.5t-5.5 77.5q0 63 56 123q46 46 122 49z" />
    <glyph glyph-name="ntilde" unicode="&#xf1;" horiz-adv-x="2144" 
d="M590 2040q38 0 72 16.5t53 48.5q1 1 5 7t6.5 9.5t7.5 9.5t10 10.5t11 10t13.5 10t15.5 7.5q50 18 111 -6q5 -2 12.5 -4t14 -5t12.5 -8q52 -44 133 -71q104 -33 176 -29q79 4 121 18q40 13 111 56q61 40 96 75q43 40 43 101t-41 102q-43 43 -100 43q-68 0 -105 -37
q-74 -63 -139 -67q-44 0 -74 8q-10 4 -17 8t-14.5 10.5t-13.5 10.5q-51 37 -111 57q-58 29 -104 33q-29 1 -34 2t-36 -3t-39 -5q-86 -10 -106 -17q-61 -25 -121 -76q-45 -37 -88 -108q-32 -52 -20 -107q14 -62 61 -90q31 -20 78 -20zM1837 1886q66 0 125 -55q51 -54 51 -123
q0 -39 2 -77.5t2 -76.5q0 -39 -5 -77t-5 -76q0 -39 4 -77.5t4 -76.5q0 -39 -1 -77t-1 -76q0 -39 2 -77.5t2 -76.5q0 -39 -3 -77.5t-3 -76.5t2 -76t2 -77q0 -38 -3 -76.5t-3 -77.5q0 -38 5 -76t5 -77q0 -38 1 -76.5t1 -77.5q0 -52 -63 -119q-53 -53 -117 -53q-68 -3 -115 35
q-2 2 -7 10.5t-9 11.5q-26 28 -52.5 54.5t-51.5 54.5q-27 27 -58 49.5t-57 48.5q-26 27 -49.5 57.5t-50.5 57.5q-27 28 -56 54t-53 50q-25 27 -53 52.5t-53 52.5q-24 25 -49.5 54.5t-53.5 57.5q-26 27 -50 56t-50 55q-29 30 -58 57.5t-51 49.5q-20 20 -38 37.5t-31.5 31
t-36.5 37.5q-27 26 -55 53t-54 53q-48 51 -110 27q-27 -11 -43.5 -37t-16.5 -59q0 -37 3 -74.5t3 -75.5q0 -37 -2 -73.5t-2 -73.5t-4 -74t-4 -74q0 -38 1 -75t1 -74t1 -74t1 -74q0 -38 1 -75t1 -74q0 -73 -53 -123q-46 -49 -125 -49q-78 0 -125 47q-45 48 -45 127
q0 39 -1 77.5t-1 76.5q0 39 2 77t2 76t-3 76.5t-3 77.5v153v152q0 39 2 77.5t2 76.5q0 39 -3 77t-3 76t1 76.5t1 77.5q0 38 2 76t2 77q0 38 -4 76t-4 76q0 76 53 129q50 50 127 53q11 0 22 -2.5t27.5 -9.5t20.5 -8q59 -10 96 -47q21 -21 48 -46t54 -53q24 -25 44.5 -54.5
t46.5 -55.5q25 -26 51.5 -50t50.5 -49q25 -26 52.5 -48t51.5 -48l99 -102q76 -75 100 -101l98 -102l99 -102q24 -25 46.5 -53t47.5 -54t51.5 -49.5t50.5 -48.5q29 -27 65 -35t68 4q31 14 50.5 45t19.5 70q0 34 2 67.5t2 67.5q0 35 -3 69t-3 68v137q0 34 3 68t3 68q0 35 2 69
t2 68t-4 67.5t-4 67.5q0 62 55 121q61 61 119 61z" />
    <glyph glyph-name="ograve" unicode="&#xf2;" horiz-adv-x="2117" 
d="M1249 2013q43 -3 79.5 22.5t51.5 69.5q19 51 -2 109q-19 57 -73 78q-24 10 -51.5 20.5t-53.5 22.5q-53 20 -106 45q-30 11 -57.5 24.5t-47.5 22.5q-26 10 -54.5 18.5t-53.5 18.5q-55 25 -103 0q-52 -22 -71 -78q-19 -60 0 -111q21 -52 75 -77q49 -18 107 -44l104 -45
q26 -12 55 -22t54 -21q16 -6 46 -17t60 -24q1 0 17 -6t24 -6zM1921 1296q7 -17 12.5 -37.5t10.5 -45t8 -37.5q1 -4 13.5 -50.5t16.5 -70.5q13 -89 13 -123q0 -26 -6 -73t-7 -52q-9 -64 -24 -121q-14 -59 -39 -119q-30 -67 -92 -153q-49 -77 -113 -140l-21 -21l-22.5 -22.5
t-20.5 -19.5t-23 -21t-21.5 -18t-24.5 -18q-40 -27 -162 -78q-88 -36 -116 -43q-66 -17 -121 -25t-125 -8q-18 0 -38.5 2t-45.5 5.5t-39 4.5q-12 2 -56 5.5t-67 9.5q-66 16 -119 39q-69 29 -157 88q-49 35 -134 120q-65 64 -114 138q-66 101 -88 155q-30 72 -41 119
q-10 33 -23 121q-8 55 -8 125q0 10 -2.5 62.5t0.5 62.5q3 23 17.5 64.5t17.5 54.5q11 45 41 118q41 97 84 158q61 90 112 139q65 65 138 117q101 66 157 90q17 7 36 12.5t46.5 12t36.5 8.5q77 23 123 27q96 14 123 14q23 0 125 -10q18 -3 38 -7.5t46.5 -11.5t38.5 -10
q56 -14 116 -39q44 -20 154 -94q11 -7 46.5 -29.5t58.5 -39.5t42 -36t35.5 -40.5t40 -58.5t29.5 -46q7 -11 31 -46t38.5 -59t24.5 -49zM1468 520q56 56 95 121q51 87 65 137q19 78 19 154q0 57 -23 151q-24 83 -59 142q-42 72 -90 123q-49 49 -123 92q-13 8 -26.5 14
t-30.5 11.5t-27.5 9t-32 9t-29.5 7.5t-34.5 9t-39.5 10t-34.5 6.5t-40.5 3.5q-66 0 -152 -21q-62 -15 -141 -59q-53 -31 -119 -97q-51 -48 -94 -120q-24 -42 -53 -142q-27 -110 -27 -149q0 -72 23 -152q15 -60 63 -137q41 -74 90 -123q63 -63 119 -94q61 -38 141 -57
q104 -31 150 -31q19 0 40 4t36 8t39 12t36 11q6 1 35.5 8t41 10.5t32.5 11t37 17.5q12 7 23.5 15.5t25 21t20.5 19t24 23.5z" />
    <glyph glyph-name="oacute" unicode="&#xf3;" horiz-adv-x="2117" 
d="M846 2034q6 0 13 2t15 5.5t13 4.5q23 10 37.5 15.5t32 11.5t36.5 14q25 11 54 21t55 22l104 45q47 21 107 43q55 25 76 78q18 50 0 110q-19 56 -72 78q-48 25 -103 0q-25 -10 -53.5 -18.5t-54.5 -18.5q-20 -9 -47.5 -22.5t-57.5 -24.5q-53 -25 -106 -45
q-27 -12 -54 -22.5t-50 -20.5q-55 -22 -74 -78q-21 -58 -2 -108q15 -44 51.5 -69.5t79.5 -22.5zM1921 1296q7 -17 12.5 -37.5t10.5 -45t8 -37.5q1 -4 13.5 -50.5t16.5 -70.5q13 -89 13 -123q0 -26 -6 -73t-7 -52q-9 -64 -24 -121q-14 -59 -39 -119q-30 -67 -92 -153
q-49 -77 -113 -140l-21 -21l-22.5 -22.5t-20.5 -19.5t-23 -21t-21.5 -18t-24.5 -18q-40 -27 -162 -78q-88 -36 -116 -43q-66 -17 -121 -25t-125 -8q-18 0 -38.5 2t-45.5 5.5t-39 4.5q-12 2 -56 5.5t-67 9.5q-66 16 -119 39q-69 29 -157 88q-49 35 -134 120q-65 64 -114 138
q-66 101 -88 155q-30 72 -41 119q-10 33 -23 121q-8 55 -8 125q0 10 -2.5 62.5t0.5 62.5q3 23 17.5 64.5t17.5 54.5q11 45 41 118q41 97 84 158q61 90 112 139q65 65 138 117q101 66 157 90q17 7 36 12.5t46.5 12t36.5 8.5q77 23 123 27q96 14 123 14q23 0 125 -10
q18 -3 38 -7.5t46.5 -11.5t38.5 -10q56 -14 116 -39q44 -20 154 -94q11 -7 46.5 -29.5t58.5 -39.5t42 -36t35.5 -40.5t40 -58.5t29.5 -46q7 -11 31 -46t38.5 -59t24.5 -49zM1468 520q56 56 95 121q51 87 65 137q19 78 19 154q0 57 -23 151q-24 83 -59 142q-42 72 -90 123
q-49 49 -123 92q-13 8 -26.5 14t-30.5 11.5t-27.5 9t-32 9t-29.5 7.5t-34.5 9t-39.5 10t-34.5 6.5t-40.5 3.5q-66 0 -152 -21q-62 -15 -141 -59q-53 -31 -119 -97q-51 -48 -94 -120q-24 -42 -53 -142q-27 -110 -27 -149q0 -72 23 -152q15 -60 63 -137q41 -74 90 -123
q63 -63 119 -94q61 -38 141 -57q104 -31 150 -31q19 0 40 4t36 8t39 12t36 11q6 1 35.5 8t41 10.5t32.5 11t37 17.5q12 7 23.5 15.5t25 21t20.5 19t24 23.5z" />
    <glyph glyph-name="ocircumflex" unicode="&#xf4;" horiz-adv-x="2117" 
d="M1442 2234q49 -31 61 -82q8 -46 -22 -98q-38 -59 -105 -59q-38 0 -69 16q-107 75 -109 76q-29 19 -54.5 39.5t-49.5 36.5q-39 25 -80 -4q-29 -21 -56 -41.5t-47 -34.5q-25 -17 -51.5 -33t-52.5 -33q-30 -24 -70 -24q-62 0 -100 59q-32 47 -23 96q10 59 52 88
q3 2 35.5 24.5t48.5 33.5t43 33t38 30q14 10 58 39t67 47q38 24 52 29q59 20 135 -33q17 -12 100 -69q62 -41 98 -68q60 -40 101 -68zM1921 1296q7 -17 12.5 -37.5t10.5 -45t8 -37.5q1 -4 13.5 -50.5t16.5 -70.5q13 -89 13 -123q0 -26 -6 -73t-7 -52q-9 -64 -24 -121
q-14 -59 -39 -119q-30 -67 -92 -153q-49 -77 -113 -140l-21 -21l-22.5 -22.5t-20.5 -19.5t-23 -21t-21.5 -18t-24.5 -18q-40 -27 -162 -78q-88 -36 -116 -43q-66 -17 -121 -25t-125 -8q-18 0 -38.5 2t-45.5 5.5t-39 4.5q-12 2 -56 5.5t-67 9.5q-66 16 -119 39
q-69 29 -157 88q-49 35 -134 120q-65 64 -114 138q-66 101 -88 155q-30 72 -41 119q-10 33 -23 121q-8 55 -8 125q0 10 -2.5 62.5t0.5 62.5q3 23 17.5 64.5t17.5 54.5q11 45 41 118q41 97 84 158q61 90 112 139q65 65 138 117q101 66 157 90q17 7 36 12.5t46.5 12t36.5 8.5
q77 23 123 27q96 14 123 14q23 0 125 -10q18 -3 38 -7.5t46.5 -11.5t38.5 -10q56 -14 116 -39q44 -20 154 -94q11 -7 46.5 -29.5t58.5 -39.5t42 -36t35.5 -40.5t40 -58.5t29.5 -46q7 -11 31 -46t38.5 -59t24.5 -49zM1468 520q56 56 95 121q51 87 65 137q19 78 19 154
q0 57 -23 151q-24 83 -59 142q-42 72 -90 123q-49 49 -123 92q-13 8 -26.5 14t-30.5 11.5t-27.5 9t-32 9t-29.5 7.5t-34.5 9t-39.5 10t-34.5 6.5t-40.5 3.5q-66 0 -152 -21q-62 -15 -141 -59q-53 -31 -119 -97q-51 -48 -94 -120q-24 -42 -53 -142q-27 -110 -27 -149
q0 -72 23 -152q15 -60 63 -137q41 -74 90 -123q63 -63 119 -94q61 -38 141 -57q104 -31 150 -31q19 0 40 4t36 8t39 12t36 11q6 1 35.5 8t41 10.5t32.5 11t37 17.5q12 7 23.5 15.5t25 21t20.5 19t24 23.5z" />
    <glyph glyph-name="otilde" unicode="&#xf5;" horiz-adv-x="2117" 
d="M573 2040q38 0 72 16.5t53 48.5q0 1 4 6l6 7.5t6.5 8.5t8 9.5l9 9t10.5 9t12 7.5t14 7q50 18 111 -6q5 -2 12.5 -4t14 -5t12.5 -8q52 -44 133 -71q104 -33 176 -29q79 4 121 18q38 12 110 56q62 40 96 75q43 40 43 101t-41 102q-43 43 -100 43q-67 0 -104 -37
q-74 -63 -140 -67q-43 0 -73 8q-10 4 -17 8t-14.5 10.5t-13.5 10.5q-51 37 -111 57q-58 29 -104 33q-29 1 -34 2t-36 -3t-39 -5q-86 -10 -106 -17q-61 -25 -121 -76q-45 -37 -88 -108q-33 -54 -21 -107q14 -61 62 -90q31 -20 77 -20zM1921 1296q7 -17 12.5 -37.5t10.5 -45
t8 -37.5q1 -4 13.5 -50.5t16.5 -70.5q13 -89 13 -123q0 -26 -6 -73t-7 -52q-9 -64 -24 -121q-14 -59 -39 -119q-30 -67 -92 -153q-49 -77 -113 -140l-21 -21l-22.5 -22.5t-20.5 -19.5t-23 -21t-21.5 -18t-24.5 -18q-40 -27 -162 -78q-88 -36 -116 -43q-66 -17 -121 -25
t-125 -8q-18 0 -38.5 2t-45.5 5.5t-39 4.5q-12 2 -56 5.5t-67 9.5q-66 16 -119 39q-69 29 -157 88q-49 35 -134 120q-65 64 -114 138q-66 101 -88 155q-30 72 -41 119q-10 33 -23 121q-8 55 -8 125q0 10 -2.5 62.5t0.5 62.5q3 23 17.5 64.5t17.5 54.5q11 45 41 118
q41 97 84 158q61 90 112 139q65 65 138 117q101 66 157 90q17 7 36 12.5t46.5 12t36.5 8.5q77 23 123 27q96 14 123 14q23 0 125 -10q18 -3 38 -7.5t46.5 -11.5t38.5 -10q56 -14 116 -39q44 -20 154 -94q11 -7 46.5 -29.5t58.5 -39.5t42 -36t35.5 -40.5t40 -58.5t29.5 -46
q7 -11 31 -46t38.5 -59t24.5 -49zM1468 520q56 56 95 121q51 87 65 137q19 78 19 154q0 57 -23 151q-24 83 -59 142q-42 72 -90 123q-49 49 -123 92q-13 8 -26.5 14t-30.5 11.5t-27.5 9t-32 9t-29.5 7.5t-34.5 9t-39.5 10t-34.5 6.5t-40.5 3.5q-66 0 -152 -21
q-62 -15 -141 -59q-53 -31 -119 -97q-51 -48 -94 -120q-24 -42 -53 -142q-27 -110 -27 -149q0 -72 23 -152q15 -60 63 -137q41 -74 90 -123q63 -63 119 -94q61 -38 141 -57q104 -31 150 -31q19 0 40 4t36 8t39 12t36 11q6 1 35.5 8t41 10.5t32.5 11t37 17.5q12 7 23.5 15.5
t25 21t20.5 19t24 23.5z" />
    <glyph glyph-name="odieresis" unicode="&#xf6;" horiz-adv-x="2117" 
d="M944 2212q-9 94 -51.5 133t-118.5 39q-72 0 -123 -50t-51 -122q6 -70 54 -117t120 -53q70 -6 120 46t50 124zM1487 2212q-9 94 -51.5 133t-118.5 39q-72 0 -123 -50t-51 -122q6 -70 54 -117t120 -53q70 -6 120 46t50 124zM1921 1296q7 -17 12.5 -37.5t10.5 -45t8 -37.5
q1 -4 13.5 -50.5t16.5 -70.5q13 -89 13 -123q0 -26 -6 -73t-7 -52q-9 -64 -24 -121q-14 -59 -39 -119q-30 -67 -92 -153q-49 -77 -113 -140l-21 -21l-22.5 -22.5t-20.5 -19.5t-23 -21t-21.5 -18t-24.5 -18q-40 -27 -162 -78q-88 -36 -116 -43q-66 -17 -121 -25t-125 -8
q-18 0 -38.5 2t-45.5 5.5t-39 4.5q-12 2 -56 5.5t-67 9.5q-66 16 -119 39q-69 29 -157 88q-49 35 -134 120q-65 64 -114 138q-66 101 -88 155q-30 72 -41 119q-10 33 -23 121q-8 55 -8 125q0 10 -2.5 62.5t0.5 62.5q3 23 17.5 64.5t17.5 54.5q11 45 41 118q41 97 84 158
q61 90 112 139q65 65 138 117q101 66 157 90q17 7 36 12.5t46.5 12t36.5 8.5q77 23 123 27q96 14 123 14q23 0 125 -10q18 -3 38 -7.5t46.5 -11.5t38.5 -10q56 -14 116 -39q44 -20 154 -94q11 -7 46.5 -29.5t58.5 -39.5t42 -36t35.5 -40.5t40 -58.5t29.5 -46q7 -11 31 -46
t38.5 -59t24.5 -49zM1468 520q56 56 95 121q51 87 65 137q19 78 19 154q0 57 -23 151q-24 83 -59 142q-42 72 -90 123q-49 49 -123 92q-13 8 -26.5 14t-30.5 11.5t-27.5 9t-32 9t-29.5 7.5t-34.5 9t-39.5 10t-34.5 6.5t-40.5 3.5q-66 0 -152 -21q-62 -15 -141 -59
q-53 -31 -119 -97q-51 -48 -94 -120q-24 -42 -53 -142q-27 -110 -27 -149q0 -72 23 -152q15 -60 63 -137q41 -74 90 -123q63 -63 119 -94q61 -38 141 -57q104 -31 150 -31q19 0 40 4t36 8t39 12t36 11q6 1 35.5 8t41 10.5t32.5 11t37 17.5q12 7 23.5 15.5t25 21t20.5 19
t24 23.5z" />
    <glyph glyph-name="ugrave" unicode="&#xf9;" 
d="M1260 2034q43 -3 79.5 22.5t51.5 69.5q19 50 -2 108q-19 56 -74 78q-24 10 -51.5 20.5t-53.5 22.5q-53 20 -106 45q-30 11 -57.5 24.5t-47.5 22.5q-26 10 -54.5 18.5t-53.5 18.5q-55 25 -103 0q-52 -22 -71 -78q-18 -60 0 -110q21 -53 76 -78q55 -20 106 -43l105 -45
q26 -12 54.5 -22t53.5 -21q18 -7 47.5 -17.5t59.5 -23.5q1 0 17 -6t24 -6zM2007 1714q0 -30 -4 -88t-4 -88t-1 -89t-1 -87q0 -26 3 -79t3 -79q1 -30 -0.5 -84.5t-1.5 -72.5q0 -123 -4 -158q-2 -23 -6.5 -48t-12 -58t-10.5 -48q-22 -91 -45 -149q-5 -12 -14.5 -38.5
t-17.5 -47t-17 -37.5q-14 -22 -80 -103q-5 -6 -23.5 -30.5t-26.5 -35t-23 -27.5t-29 -29q-86 -77 -123 -101q-75 -47 -156 -78q-67 -25 -168 -43q-99 -18 -170 -18q-4 0 -12 1t-12 1q-90 4 -133 12q-36 5 -130 37q-31 9 -122 53q-89 41 -117 60q-48 33 -119 104
q-9 8 -36.5 33t-45 43t-31.5 37t-33 59.5t-28 55.5q-42 78 -57 116q-39 98 -47 135q-6 28 -8 82t-3 60q-2 18 -8.5 67t-7.5 76q0 24 -1 71t-1 70q0 24 1 70t1 68q0 23 2 68t2 67t-3 67t-3 68t2 68t2 67q0 61 51 119q46 46 117 49q73 3 123 -47q53 -50 53 -123q0 -18 4 -56
t4 -57t1 -56t1 -56q0 -29 1 -86t1 -86t-1 -86t-1 -86q0 -18 -2.5 -65t-1.5 -72q0 -104 6 -138q2 -16 7.5 -34.5t10 -31t13 -34t12.5 -31.5q35 -90 88 -157q56 -70 129 -123q86 -57 150 -76q72 -22 166 -25q70 -2 166 23q110 28 157 59q48 29 109 94q42 45 82 119
q29 55 51 148q3 15 18 69.5t17 85.5q1 34 0.5 51.5t-3 53t-3.5 53.5q0 27 -3 80t-3 78v147q0 25 1 74t1 74t-1 74t-1 73q0 78 55 133q56 52 133 49q70 -3 121 -57q51 -55 51 -123z" />
    <glyph glyph-name="uacute" unicode="&#xfa;" 
d="M854 2034q6 0 13 2t15 5.5t13 4.5q23 10 37.5 15.5t32 11.5t36.5 14q25 11 54 21t55 22l104 45q47 21 107 43q55 25 76 78q18 50 0 110q-19 56 -72 78q-48 25 -102 0q-26 -10 -54.5 -18.5t-54.5 -18.5q-21 -9 -47.5 -22.5t-56.5 -24.5q-49 -23 -107 -45
q-27 -12 -54 -22.5t-50 -20.5q-55 -22 -74 -78q-21 -58 -2 -108q15 -44 51.5 -69.5t79.5 -22.5zM2007 1714q0 -30 -4 -88t-4 -88t-1 -89t-1 -87q0 -26 3 -79t3 -79q1 -30 -0.5 -84.5t-1.5 -72.5q0 -123 -4 -158q-2 -23 -6.5 -48t-12 -58t-10.5 -48q-22 -91 -45 -149
q-5 -12 -14.5 -38.5t-17.5 -47t-17 -37.5q-14 -22 -80 -103q-5 -6 -23.5 -30.5t-26.5 -35t-23 -27.5t-29 -29q-86 -77 -123 -101q-75 -47 -156 -78q-67 -25 -168 -43q-99 -18 -170 -18q-4 0 -12 1t-12 1q-90 4 -133 12q-36 5 -130 37q-31 9 -122 53q-89 41 -117 60
q-48 33 -119 104q-9 8 -36.5 33t-45 43t-31.5 37t-33 59.5t-28 55.5q-42 78 -57 116q-39 98 -47 135q-6 28 -8 82t-3 60q-2 18 -8.5 67t-7.5 76q0 24 -1 71t-1 70q0 24 1 70t1 68q0 23 2 68t2 67t-3 67t-3 68t2 68t2 67q0 61 51 119q46 46 117 49q73 3 123 -47
q53 -50 53 -123q0 -18 4 -56t4 -57t1 -56t1 -56q0 -29 1 -86t1 -86t-1 -86t-1 -86q0 -18 -2.5 -65t-1.5 -72q0 -104 6 -138q2 -16 7.5 -34.5t10 -31t13 -34t12.5 -31.5q35 -90 88 -157q56 -70 129 -123q86 -57 150 -76q72 -22 166 -25q70 -2 166 23q110 28 157 59
q48 29 109 94q42 45 82 119q29 55 51 148q3 15 18 69.5t17 85.5q1 34 0.5 51.5t-3 53t-3.5 53.5q0 27 -3 80t-3 78v147q0 25 1 74t1 74t-1 74t-1 73q0 78 55 133q56 52 133 49q70 -3 121 -57q51 -55 51 -123z" />
    <glyph glyph-name="ucircumflex" unicode="&#xfb;" 
d="M1450 2234q49 -31 61 -82q8 -46 -22 -98q-38 -59 -105 -59q-38 0 -69 16q-107 75 -109 76q-29 19 -54.5 39.5t-49.5 36.5q-39 25 -80 -4q-27 -20 -52.5 -39t-49.5 -37q-25 -17 -52 -33t-53 -33q-30 -24 -70 -24q-62 0 -100 59q-32 46 -22 96q10 60 51 88q3 2 35.5 24.5
t48.5 33.5t44 33.5t38 29.5q14 10 58 39t67 47q39 25 51 29q59 20 135 -33q17 -12 100 -69q70 -46 99 -68q43 -28 100 -68zM2007 1714q0 -30 -4 -88t-4 -88t-1 -89t-1 -87q0 -26 3 -79t3 -79q1 -30 -0.5 -84.5t-1.5 -72.5q0 -123 -4 -158q-2 -23 -6.5 -48t-12 -58t-10.5 -48
q-22 -91 -45 -149q-5 -12 -14.5 -38.5t-17.5 -47t-17 -37.5q-14 -22 -80 -103q-5 -6 -23.5 -30.5t-26.5 -35t-23 -27.5t-29 -29q-86 -77 -123 -101q-75 -47 -156 -78q-67 -25 -168 -43q-99 -18 -170 -18q-4 0 -12 1t-12 1q-90 4 -133 12q-36 5 -130 37q-31 9 -122 53
q-89 41 -117 60q-48 33 -119 104q-9 8 -36.5 33t-45 43t-31.5 37t-33 59.5t-28 55.5q-42 78 -57 116q-39 98 -47 135q-6 28 -8 82t-3 60q-2 18 -8.5 67t-7.5 76q0 24 -1 71t-1 70q0 24 1 70t1 68q0 23 2 68t2 67t-3 67t-3 68t2 68t2 67q0 61 51 119q46 46 117 49
q73 3 123 -47q53 -50 53 -123q0 -18 4 -56t4 -57t1 -56t1 -56q0 -29 1 -86t1 -86t-1 -86t-1 -86q0 -18 -2.5 -65t-1.5 -72q0 -104 6 -138q2 -16 7.5 -34.5t10 -31t13 -34t12.5 -31.5q35 -90 88 -157q56 -70 129 -123q86 -57 150 -76q72 -22 166 -25q70 -2 166 23
q110 28 157 59q48 29 109 94q42 45 82 119q29 55 51 148q3 15 18 69.5t17 85.5q1 34 0.5 51.5t-3 53t-3.5 53.5q0 27 -3 80t-3 78v147q0 25 1 74t1 74t-1 74t-1 73q0 78 55 133q56 52 133 49q70 -3 121 -57q51 -55 51 -123z" />
    <glyph glyph-name="udieresis" unicode="&#xfc;" 
d="M952 2212q-9 94 -51.5 133t-118.5 39q-72 0 -123 -50t-51 -122q6 -70 54 -117t120 -53q70 -6 120 46t50 124zM1495 2212q-9 94 -51.5 133t-118.5 39q-72 0 -123 -50t-51 -122q6 -70 54 -117t120 -53q70 -6 120 46t50 124zM2007 1714q0 -30 -4 -88t-4 -88t-1 -89t-1 -87
q0 -26 3 -79t3 -79q1 -30 -0.5 -84.5t-1.5 -72.5q0 -123 -4 -158q-2 -23 -6.5 -48t-12 -58t-10.5 -48q-22 -91 -45 -149q-5 -12 -14.5 -38.5t-17.5 -47t-17 -37.5q-14 -22 -80 -103q-5 -6 -23.5 -30.5t-26.5 -35t-23 -27.5t-29 -29q-86 -77 -123 -101q-75 -47 -156 -78
q-67 -25 -168 -43q-99 -18 -170 -18q-4 0 -12 1t-12 1q-90 4 -133 12q-36 5 -130 37q-31 9 -122 53q-89 41 -117 60q-48 33 -119 104q-9 8 -36.5 33t-45 43t-31.5 37t-33 59.5t-28 55.5q-42 78 -57 116q-39 98 -47 135q-6 28 -8 82t-3 60q-2 18 -8.5 67t-7.5 76q0 24 -1 71
t-1 70q0 24 1 70t1 68q0 23 2 68t2 67t-3 67t-3 68t2 68t2 67q0 61 51 119q46 46 117 49q73 3 123 -47q53 -50 53 -123q0 -18 4 -56t4 -57t1 -56t1 -56q0 -29 1 -86t1 -86t-1 -86t-1 -86q0 -18 -2.5 -65t-1.5 -72q0 -104 6 -138q2 -16 7.5 -34.5t10 -31t13 -34t12.5 -31.5
q35 -90 88 -157q56 -70 129 -123q86 -57 150 -76q72 -22 166 -25q70 -2 166 23q110 28 157 59q48 29 109 94q42 45 82 119q29 55 51 148q3 15 18 69.5t17 85.5q1 34 0.5 51.5t-3 53t-3.5 53.5q0 27 -3 80t-3 78v147q0 25 1 74t1 74t-1 74t-1 73q0 78 55 133q56 52 133 49
q70 -3 121 -57q51 -55 51 -123z" />
    <glyph glyph-name="yacute" unicode="&#xfd;" horiz-adv-x="2119" 
d="M852 2034q6 0 13 2t15 5.5t13 4.5q23 10 37.5 15.5t32 11.5t36.5 14q25 11 54 21t55 22l104 45q47 21 107 43q55 25 76 78q18 50 0 110q-19 56 -72 78q-48 25 -102 0q-26 -10 -54.5 -18.5t-54.5 -18.5q-21 -9 -47.5 -22.5t-56.5 -24.5q-49 -23 -107 -45
q-27 -12 -54 -22.5t-50 -20.5q-55 -22 -74 -78q-21 -58 -2 -108q15 -44 51.5 -69.5t79.5 -22.5zM1944 1831q64 -54 51 -145q-1 -10 -3.5 -20t-5.5 -18.5t-8 -18.5t-8.5 -16.5t-11.5 -17t-11.5 -15.5t-13 -16t-12.5 -15t-13.5 -16t-13.5 -15q-15 -17 -43.5 -52.5t-44.5 -52.5
l-90 -104q-18 -19 -49.5 -55.5t-40.5 -47.5q-10 -11 -29.5 -31t-35 -36.5t-29.5 -32.5l-90 -105q-41 -43 -103 -124q-45 -59 -77 -140q-3 -10 -10.5 -30t-12 -32.5t-9 -30t-5.5 -32.5q-1 -32 -1 -43.5t2 -44t3 -43.5q0 -43 4 -133q1 -24 -5 -69.5t-7 -61.5q0 -5 -0.5 -30
t-1.5 -34.5t-4 -28t-8.5 -32.5t-14.5 -26q-23 -34 -63.5 -53t-84.5 -17q-41 1 -78 24t-57 60q-37 68 -39 106q-5 61 -2 140q0 45 4 139q0 7 4.5 59.5t2.5 79.5q-6 67 -31 135q-27 71 -74 133q-40 56 -94 117q-16 18 -45.5 54t-44.5 53t-48 48.5t-48 49.5q-75 85 -91 104
l-92 105q-16 18 -44 54.5t-44 53.5q-69 80 -90 142q-21 76 2 121q24 53 90 81q62 27 121 5q29 -12 59 -36t47.5 -43.5t45.5 -54.5q67 -75 104 -118l105 -121q21 -27 102 -121q82 -103 100 -123q33 -41 74 -61q65 -32 145 16q72 43 121 98q18 21 49 60.5t43 54.5
q19 21 51 60.5t44 54.5l94 110q17 18 49.5 54.5t48.5 54.5q89 109 168 125q25 6 57 2q57 -10 91 -41z" />
    <glyph glyph-name="ydieresis" unicode="&#xff;" horiz-adv-x="2119" 
d="M950 2212q-9 94 -51.5 133t-118.5 39q-72 0 -123 -50t-51 -122q6 -70 54 -117t120 -53q70 -6 120 46t50 124zM1493 2212q-9 94 -51.5 133t-118.5 39q-72 0 -123 -50t-51 -122q6 -70 54 -117t120 -53q70 -6 120 46t50 124zM1944 1831q64 -54 51 -145q-1 -10 -3.5 -20
t-5.5 -18.5t-8 -18.5t-8.5 -16.5t-11.5 -17t-11.5 -15.5t-13 -16t-12.5 -15t-13.5 -16t-13.5 -15q-15 -17 -43.5 -52.5t-44.5 -52.5l-90 -104q-18 -19 -49.5 -55.5t-40.5 -47.5q-10 -11 -29.5 -31t-35 -36.5t-29.5 -32.5l-90 -105q-41 -43 -103 -124q-45 -59 -77 -140
q-3 -10 -10.5 -30t-12 -32.5t-9 -30t-5.5 -32.5q-1 -32 -1 -43.5t2 -44t3 -43.5q0 -43 4 -133q1 -24 -5 -69.5t-7 -61.5q0 -5 -0.5 -30t-1.5 -34.5t-4 -28t-8.5 -32.5t-14.5 -26q-23 -34 -63.5 -53t-84.5 -17q-41 1 -78 24t-57 60q-37 68 -39 106q-5 61 -2 140q0 45 4 139
q0 7 4.5 59.5t2.5 79.5q-6 67 -31 135q-27 71 -74 133q-40 56 -94 117q-16 18 -45.5 54t-44.5 53t-48 48.5t-48 49.5q-75 85 -91 104l-92 105q-16 18 -44 54.5t-44 53.5q-69 80 -90 142q-21 76 2 121q24 53 90 81q62 27 121 5q29 -12 59 -36t47.5 -43.5t45.5 -54.5
q67 -75 104 -118l105 -121q21 -27 102 -121q82 -103 100 -123q33 -41 74 -61q65 -32 145 16q72 43 121 98q18 21 49 60.5t43 54.5q19 21 51 60.5t44 54.5l94 110q17 18 49.5 54.5t48.5 54.5q89 109 168 125q25 6 57 2q57 -10 91 -41z" />
    <glyph glyph-name="wcircumflex" unicode="&#x175;" horiz-adv-x="2142" 
d="M1464 2234q50 -32 62 -82q8 -44 -23 -98q-38 -59 -104 -59q-39 0 -70 16q-20 14 -37 26.5t-31.5 23t-39.5 26.5q-29 19 -55.5 39.5t-49.5 36.5q-39 25 -80 -4q-27 -20 -52.5 -39t-49.5 -37q-26 -17 -52.5 -33t-52.5 -33q-30 -24 -69 -24q-63 0 -101 59q-32 46 -22 96
q10 60 51 88q3 2 35.5 24.5t48.5 33.5t44 33.5t38 29.5q14 10 58 39t67 47q39 25 51 29q59 20 135 -33q35 -23 101 -69q62 -41 98 -68q43 -28 100 -68zM2009 1710q0 -39 -1 -77.5t-1 -76.5q2 -78 2 -153v-154q0 -39 3 -77t3 -76q0 -39 2 -77.5t2 -76.5q0 -39 -5 -77.5
t-5 -76.5q0 -39 2 -77t2 -76q0 -39 -3 -77.5t-3 -76.5q0 -39 1 -77t1 -76q1 -37 5.5 -75.5t4.5 -78.5q0 -73 -77 -131q-70 -56 -146 -37q-18 5 -35.5 16t-26.5 19t-28 27q-47 33 -104 88q-46 44 -99 96q-18 17 -48.5 51t-43.5 47q-18 18 -52 48t-48 44q-29 28 -48.5 54
t-43.5 49q-55 53 -150 49q-93 0 -147 -51q-24 -24 -46 -53t-47 -54q-25 -24 -49 -47.5t-49 -48.5q-25 -24 -52.5 -47t-51.5 -47q-26 -25 -49 -51.5t-46 -49.5q-23 -22 -50.5 -44t-53.5 -48q-59 -59 -121 -59q-65 0 -125 57q-53 50 -53 121q-6 60 -6 154q0 21 1 72t1 81
q0 23 4 75t4 79q0 100 -2 153q0 25 -1 76.5t-1 77.5t3 77t3 77q0 27 -2 78t-2 75q0 27 -3 79t-3 75q0 30 2 81t2 72q0 49 1 83t1 71q0 78 45 123q42 39 125 39q74 0 123 -43q47 -47 47 -119q2 -64 2 -156v-155q0 -29 3.5 -83t4.5 -73q0 -27 1 -79.5t1 -76.5q0 -30 -5 -82
t-5 -73q0 -48 5 -83.5t5 -72.5q0 -52 43 -70.5t80 17.5l154 156q17 17 59.5 50.5t61.5 53.5q4 4 17 18t18 19t16.5 16t19 17t18.5 13.5t22.5 13t23.5 9.5q65 22 123 -6q53 -22 106 -75q18 -17 48 -50t42 -45q81 -81 99 -98q16 -17 51.5 -47.5t52.5 -46.5q37 -35 80 -17
t43 68q0 40 2 79.5t2 78.5t-1 77.5t-1 77.5t-1 78t-1 78v158q0 39 -1 77.5t-1 77.5v156q0 58 59 121q53 53 119 53q75 0 123 -51q49 -46 49 -121z" />
    <glyph glyph-name="ycircumflex" unicode="&#x177;" horiz-adv-x="2119" 
d="M1448 2234q49 -31 61 -82q8 -46 -22 -98q-38 -59 -105 -59q-38 0 -69 16q-107 75 -109 76q-29 19 -54.5 39.5t-49.5 36.5q-39 25 -80 -4q-27 -20 -52.5 -39t-49.5 -37q-25 -17 -52 -33t-53 -33q-30 -24 -70 -24q-62 0 -100 59q-32 46 -22 96q10 60 51 88q3 2 35.5 24.5
t48.5 33.5t44 33.5t38 29.5q14 10 58 39t67 47q39 25 51 29q59 20 135 -33q17 -12 100 -69q70 -46 99 -68q43 -28 100 -68zM1944 1831q64 -54 51 -145q-1 -10 -3.5 -20t-5.5 -18.5t-8 -18.5t-8.5 -16.5t-11.5 -17t-11.5 -15.5t-13 -16t-12.5 -15t-13.5 -16t-13.5 -15
q-15 -17 -43.5 -52.5t-44.5 -52.5l-90 -104q-18 -19 -49.5 -55.5t-40.5 -47.5q-10 -11 -29.5 -31t-35 -36.5t-29.5 -32.5l-90 -105q-41 -43 -103 -124q-45 -59 -77 -140q-3 -10 -10.5 -30t-12 -32.5t-9 -30t-5.5 -32.5q-1 -32 -1 -43.5t2 -44t3 -43.5q0 -43 4 -133
q1 -24 -5 -69.5t-7 -61.5q0 -5 -0.5 -30t-1.5 -34.5t-4 -28t-8.5 -32.5t-14.5 -26q-23 -34 -63.5 -53t-84.5 -17q-41 1 -78 24t-57 60q-37 68 -39 106q-5 61 -2 140q0 45 4 139q0 7 4.5 59.5t2.5 79.5q-6 67 -31 135q-27 71 -74 133q-40 56 -94 117q-16 18 -45.5 54
t-44.5 53t-48 48.5t-48 49.5q-75 85 -91 104l-92 105q-16 18 -44 54.5t-44 53.5q-69 80 -90 142q-21 76 2 121q24 53 90 81q62 27 121 5q29 -12 59 -36t47.5 -43.5t45.5 -54.5q67 -75 104 -118l105 -121q21 -27 102 -121q82 -103 100 -123q33 -41 74 -61q65 -32 145 16
q72 43 121 98q18 21 49 60.5t43 54.5q19 21 51 60.5t44 54.5l94 110q17 18 49.5 54.5t48.5 54.5q89 109 168 125q25 6 57 2q57 -10 91 -41z" />
    <glyph glyph-name="uni0410" unicode="&#x410;" horiz-adv-x="2324" 
 />
    <glyph glyph-name="wgrave" unicode="&#x1e81;" horiz-adv-x="2142" 
d="M1262 2048q43 -3 79.5 22.5t51.5 69.5q19 51 -2 109q-19 56 -74 78q-24 10 -51.5 20.5t-53.5 22.5q-53 20 -106 45q-30 11 -57.5 24.5t-47.5 22.5q-26 10 -54.5 18.5t-53.5 18.5q-54 25 -102 0q-53 -22 -72 -78q-19 -60 0 -111q21 -53 76 -78q55 -20 106 -43l105 -45
q26 -12 54.5 -22t53.5 -21q18 -7 47.5 -17.5t59.5 -23.5q1 0 17 -6t24 -6zM2009 1710q0 -39 -1 -77.5t-1 -76.5q2 -78 2 -153v-154q0 -39 3 -77t3 -76q0 -39 2 -77.5t2 -76.5q0 -39 -5 -77.5t-5 -76.5q0 -39 2 -77t2 -76q0 -39 -3 -77.5t-3 -76.5q0 -39 1 -77t1 -76
q1 -37 5.5 -75.5t4.5 -78.5q0 -73 -77 -131q-70 -56 -146 -37q-18 5 -35.5 16t-26.5 19t-28 27q-47 33 -104 88q-46 44 -99 96q-18 17 -48.5 51t-43.5 47q-18 18 -52 48t-48 44q-29 28 -48.5 54t-43.5 49q-55 53 -150 49q-93 0 -147 -51q-24 -24 -46 -53t-47 -54
q-25 -24 -49 -47.5t-49 -48.5q-25 -24 -52.5 -47t-51.5 -47q-26 -25 -49 -51.5t-46 -49.5q-23 -22 -50.5 -44t-53.5 -48q-59 -59 -121 -59q-65 0 -125 57q-53 50 -53 121q-6 60 -6 154q0 21 1 72t1 81q0 23 4 75t4 79q0 100 -2 153q0 25 -1 76.5t-1 77.5t3 77t3 77
q0 27 -2 78t-2 75q0 27 -3 79t-3 75q0 30 2 81t2 72q0 49 1 83t1 71q0 78 45 123q42 39 125 39q74 0 123 -43q47 -47 47 -119q2 -64 2 -156v-155q0 -29 3.5 -83t4.5 -73q0 -27 1 -79.5t1 -76.5q0 -30 -5 -82t-5 -73q0 -48 5 -83.5t5 -72.5q0 -52 43 -70.5t80 17.5l154 156
q17 17 59.5 50.5t61.5 53.5q4 4 17 18t18 19t16.5 16t19 17t18.5 13.5t22.5 13t23.5 9.5q65 22 123 -6q53 -22 106 -75q18 -17 48 -50t42 -45q81 -81 99 -98q16 -17 51.5 -47.5t52.5 -46.5q37 -35 80 -17t43 68q0 40 2 79.5t2 78.5t-1 77.5t-1 77.5t-1 78t-1 78v158
q0 39 -1 77.5t-1 77.5v156q0 58 59 121q53 53 119 53q75 0 123 -51q49 -46 49 -121z" />
    <glyph glyph-name="wacute" unicode="&#x1e83;" horiz-adv-x="2142" 
d="M868 2034q6 0 13 2t15 5.5t13 4.5q30 13 59.5 23.5t47.5 17.5q25 11 53.5 21t54.5 22l105 45q51 23 106 43q55 25 76 78q18 50 0 110q-19 56 -72 78q-48 25 -102 0q-26 -10 -54.5 -18.5t-54.5 -18.5q-21 -9 -47.5 -22.5t-56.5 -24.5q-53 -25 -106 -45
q-26 -12 -53.5 -22.5t-51.5 -20.5q-55 -22 -74 -78q-21 -58 -2 -108q15 -44 51.5 -69.5t79.5 -22.5zM2009 1710q0 -39 -1 -77.5t-1 -76.5q2 -78 2 -153v-154q0 -39 3 -77t3 -76q0 -39 2 -77.5t2 -76.5q0 -39 -5 -77.5t-5 -76.5q0 -39 2 -77t2 -76q0 -39 -3 -77.5t-3 -76.5
q0 -39 1 -77t1 -76q1 -37 5.5 -75.5t4.5 -78.5q0 -73 -77 -131q-70 -56 -146 -37q-18 5 -35.5 16t-26.5 19t-28 27q-47 33 -104 88q-46 44 -99 96q-18 17 -48.5 51t-43.5 47q-18 18 -52 48t-48 44q-29 28 -48.5 54t-43.5 49q-55 53 -150 49q-93 0 -147 -51q-24 -24 -46 -53
t-47 -54q-25 -24 -49 -47.5t-49 -48.5q-25 -24 -52.5 -47t-51.5 -47q-26 -25 -49 -51.5t-46 -49.5q-23 -22 -50.5 -44t-53.5 -48q-59 -59 -121 -59q-65 0 -125 57q-53 50 -53 121q-6 60 -6 154q0 21 1 72t1 81q0 23 4 75t4 79q0 100 -2 153q0 25 -1 76.5t-1 77.5t3 77t3 77
q0 27 -2 78t-2 75q0 27 -3 79t-3 75q0 30 2 81t2 72q0 49 1 83t1 71q0 78 45 123q42 39 125 39q74 0 123 -43q47 -47 47 -119q2 -64 2 -156v-155q0 -29 3.5 -83t4.5 -73q0 -27 1 -79.5t1 -76.5q0 -30 -5 -82t-5 -73q0 -48 5 -83.5t5 -72.5q0 -52 43 -70.5t80 17.5l154 156
q17 17 59.5 50.5t61.5 53.5q4 4 17 18t18 19t16.5 16t19 17t18.5 13.5t22.5 13t23.5 9.5q65 22 123 -6q53 -22 106 -75q18 -17 48 -50t42 -45q81 -81 99 -98q16 -17 51.5 -47.5t52.5 -46.5q37 -35 80 -17t43 68q0 40 2 79.5t2 78.5t-1 77.5t-1 77.5t-1 78t-1 78v158
q0 39 -1 77.5t-1 77.5v156q0 58 59 121q53 53 119 53q75 0 123 -51q49 -46 49 -121z" />
    <glyph glyph-name="wdieresis" unicode="&#x1e85;" horiz-adv-x="2142" 
d="M967 2212q-9 94 -51.5 133t-118.5 39q-72 0 -123 -50t-51 -122q6 -70 54 -117t120 -53q70 -6 120 46t50 124zM1509 2212q-9 94 -51.5 133t-118.5 39q-72 0 -123 -50t-51 -122q6 -70 54 -117t120 -53q70 -6 120 46t50 124zM2009 1710q0 -39 -1 -77.5t-1 -76.5
q2 -78 2 -153v-154q0 -39 3 -77t3 -76q0 -39 2 -77.5t2 -76.5q0 -39 -5 -77.5t-5 -76.5q0 -39 2 -77t2 -76q0 -39 -3 -77.5t-3 -76.5q0 -39 1 -77t1 -76q1 -37 5.5 -75.5t4.5 -78.5q0 -73 -77 -131q-70 -56 -146 -37q-18 5 -35.5 16t-26.5 19t-28 27q-47 33 -104 88
q-46 44 -99 96q-18 17 -48.5 51t-43.5 47q-18 18 -52 48t-48 44q-29 28 -48.5 54t-43.5 49q-55 53 -150 49q-93 0 -147 -51q-24 -24 -46 -53t-47 -54q-25 -24 -49 -47.5t-49 -48.5q-25 -24 -52.5 -47t-51.5 -47q-26 -25 -49 -51.5t-46 -49.5q-23 -22 -50.5 -44t-53.5 -48
q-59 -59 -121 -59q-65 0 -125 57q-53 50 -53 121q-6 60 -6 154q0 21 1 72t1 81q0 23 4 75t4 79q0 100 -2 153q0 25 -1 76.5t-1 77.5t3 77t3 77q0 27 -2 78t-2 75q0 27 -3 79t-3 75q0 30 2 81t2 72q0 49 1 83t1 71q0 78 45 123q42 39 125 39q74 0 123 -43q47 -47 47 -119
q2 -64 2 -156v-155q0 -29 3.5 -83t4.5 -73q0 -27 1 -79.5t1 -76.5q0 -30 -5 -82t-5 -73q0 -48 5 -83.5t5 -72.5q0 -52 43 -70.5t80 17.5l154 156q17 17 59.5 50.5t61.5 53.5q4 4 17 18t18 19t16.5 16t19 17t18.5 13.5t22.5 13t23.5 9.5q65 22 123 -6q53 -22 106 -75
q18 -17 48 -50t42 -45q81 -81 99 -98q16 -17 51.5 -47.5t52.5 -46.5q37 -35 80 -17t43 68q0 40 2 79.5t2 78.5t-1 77.5t-1 77.5t-1 78t-1 78v158q0 39 -1 77.5t-1 77.5v156q0 58 59 121q53 53 119 53q75 0 123 -51q49 -46 49 -121z" />
    <glyph glyph-name="ygrave" unicode="&#x1ef3;" horiz-adv-x="2119" 
d="M1229 1976q43 -3 79.5 22.5t51.5 69.5q19 51 -2 109q-19 56 -74 78q-23 10 -50 20.5t-54 22.5q-58 22 -107 45q-30 11 -56.5 24.5t-47.5 22.5q-26 10 -54.5 18.5t-54.5 18.5q-54 25 -102 0q-53 -22 -72 -78q-18 -60 0 -111q21 -52 76 -77q55 -20 106 -43l105 -45
q26 -12 54.5 -22t53.5 -21q18 -7 47.5 -17.5t59.5 -23.5q3 -1 18 -7t23 -6zM1944 1831q64 -54 51 -145q-1 -10 -3.5 -20t-5.5 -18.5t-8 -18.5t-8.5 -16.5t-11.5 -17t-11.5 -15.5t-13 -16t-12.5 -15t-13.5 -16t-13.5 -15q-15 -17 -43.5 -52.5t-44.5 -52.5l-90 -104
q-18 -19 -49.5 -55.5t-40.5 -47.5q-10 -11 -29.5 -31t-35 -36.5t-29.5 -32.5l-90 -105q-41 -43 -103 -124q-45 -59 -77 -140q-3 -10 -10.5 -30t-12 -32.5t-9 -30t-5.5 -32.5q-1 -32 -1 -43.5t2 -44t3 -43.5q0 -43 4 -133q1 -24 -5 -69.5t-7 -61.5q0 -5 -0.5 -30t-1.5 -34.5
t-4 -28t-8.5 -32.5t-14.5 -26q-23 -34 -63.5 -53t-84.5 -17q-41 1 -78 24t-57 60q-37 68 -39 106q-5 61 -2 140q0 45 4 139q0 7 4.5 59.5t2.5 79.5q-6 67 -31 135q-27 71 -74 133q-40 56 -94 117q-16 18 -45.5 54t-44.5 53t-48 48.5t-48 49.5q-75 85 -91 104l-92 105
q-16 18 -44 54.5t-44 53.5q-69 80 -90 142q-21 76 2 121q24 53 90 81q62 27 121 5q29 -12 59 -36t47.5 -43.5t45.5 -54.5q67 -75 104 -118l105 -121q21 -27 102 -121q82 -103 100 -123q33 -41 74 -61q65 -32 145 16q72 43 121 98q18 21 49 60.5t43 54.5q19 21 51 60.5
t44 54.5l94 110q17 18 49.5 54.5t48.5 54.5q89 109 168 125q25 6 57 2q57 -10 91 -41z" />
    <glyph glyph-name="ellipsis" unicode="&#x2026;" horiz-adv-x="0" 
d="M-434 371q72 0 122 -51t50 -123q0 -76 -39 -118.5t-133 -51.5q-72 0 -124 50t-46 120q6 72 53 120t117 54z" />
    <glyph glyph-name="Euro" unicode="&#x20ac;" horiz-adv-x="1951" 
d="M1757 731q60 -45 70 -119q8 -60 -43 -125q-8 -11 -25 -34.5t-27 -37t-25.5 -31.5t-29.5 -32q-19 -18 -41.5 -34t-55.5 -36.5t-44 -27.5q-70 -44 -154 -76q-13 -5 -43 -17.5t-52.5 -21t-43.5 -12.5q-82 -16 -149 -16q-65 0 -197 36q-83 23 -145 60q-81 47 -129 92
q-78 74 -109 119q-32 45 -78 139q-43 91 -59 148q-6 24 -35 24q-20 0 -41 2t-41 2q-55 0 -90 39t-35 96q0 71 45 105q15 11 58 20q7 1 30.5 2t34.5 6q16 7 23.5 25.5t-4.5 32.5q-6 6 -16.5 7t-25.5 -1t-20 -2q-55 0 -96 41.5t-41 97.5q0 32 16 62t43 49q10 7 22.5 12.5t21 8
t25.5 4t23 1.5h26.5h23.5q40 0 49 39q2 7 9 21.5t9 21.5q27 72 53 123q17 35 74 113q54 73 84 102q42 40 107 80q66 45 118 64q33 13 129 30q79 11 131 11q97 0 134 -5q100 -19 129 -28q19 -6 39.5 -16.5t44 -24.5t36.5 -21q11 -6 37 -18t45.5 -22.5t36.5 -22.5
q66 -49 109 -92q56 -56 94 -107q42 -56 31 -133q-12 -69 -74 -115q-54 -40 -129 -30q-81 14 -119 65q-65 92 -112 127q-7 6 -15 11t-17 10t-16 8.5t-18 8t-16.5 7t-18.5 7t-17 6t-18.5 6.5t-17.5 6q-5 2 -27 9.5t-30.5 10t-26 7.5t-31 7t-26.5 3q-68 0 -144 -27
q-88 -36 -147 -106q-8 -10 -15.5 -23.5t-15.5 -31t-14 -27.5q-9 -22 1.5 -41t33.5 -19q29 0 59 -3t59 -3h121q56 -2 94.5 -38t38.5 -91q0 -62 -59 -108q-42 -31 -141 -27h-125q-22 0 -63.5 3t-61.5 3q-21 4 -31 -12q-10 -10 -10 -25q3 -15 15 -27t26 -12q77 11 157 11
q39 0 78.5 -3.5t79.5 -3.5q55 0 92 -38.5t37 -94.5q0 -23 -2 -33q-14 -52 -67 -81q-47 -23 -132 -23q-32 0 -94 1t-94 1q-15 0 -18.5 -10t2 -25t11.5 -26.5t11 -18.5q6 -12 16.5 -25.5t17 -20.5t23 -23t19.5 -19q75 -72 137 -88q15 -4 35 -5.5t30.5 -1.5t38.5 1.5t33 1.5
q93 9 134 25q73 27 141 79q10 8 20 18t17.5 18t18 21.5t15.5 20t17 23.5t16 22q41 55 121 66q75 10 131 -31z" />
    <glyph glyph-name="trademark" unicode="&#x2122;" horiz-adv-x="3727" 
 />
    <glyph glyph-name="minus" unicode="&#x2212;" horiz-adv-x="1654" 
d="M1362 827q67 0 123 56q47 47 47 125q0 83 -45 125q-50 53 -125 53q-38 0 -76.5 -1t-77.5 -1q-38 0 -75.5 -4t-75.5 -4t-76.5 4t-77.5 4q-38 0 -75.5 1t-75.5 1t-76 -3t-76 -3q-39 0 -77.5 3t-76.5 3t-75.5 -1t-75.5 -1q-78 0 -127 -49q-45 -48 -45 -127t45 -127
q46 -43 127 -43q38 0 75.5 -5.5t75.5 -5.5t76.5 2t77.5 2q38 0 76 -1t76 -1h153h152q38 0 75.5 2.5t75.5 2.5q39 0 77.5 -3.5t76.5 -3.5z" />
    <glyph glyph-name="approxequal" unicode="&#x2248;" horiz-adv-x="1413" 
d="M266 1075q37 0 71.5 17t53.5 49q0 1 3 5t4.5 5.5t5 6t5.5 7t6 7t7.5 7.5t8 7t9 7t10 6t11.5 5q50 18 110 -6q2 -1 16.5 -5t22.5 -11q54 -46 133 -72q104 -33 177 -29q75 3 120 19q44 14 111 55q59 39 96 76q43 40 43 100q0 62 -41 103q-43 43 -100 43q-68 0 -105 -37
q-75 -64 -139 -68q-44 0 -74 8q-10 4 -17 8t-14.5 10.5t-13.5 10.5q-52 37 -110 57q-58 29 -105 33q-29 1 -34 2t-35.5 -3t-38.5 -5q-7 -1 -31.5 -3t-41.5 -5t-34 -8q-59 -25 -120 -76q-46 -38 -89 -109q-32 -52 -20 -106q14 -62 61 -90q33 -21 78 -21zM266 569
q37 0 71.5 17t53.5 49q34 48 70 61q49 20 110 -4q2 -1 16.5 -5.5t22.5 -10.5q54 -46 133 -72q104 -33 177 -29q75 3 120 19q44 14 111 55q59 39 96 76q43 40 43 100q0 62 -41 103q-43 43 -100 43q-68 0 -105 -37q-75 -64 -139 -68q-49 0 -74 8q-10 4 -17 8t-14.5 10.5
t-13.5 10.5q-48 35 -110 58q-56 28 -105 32q-29 1 -34 2t-35.5 -3t-38.5 -5q-7 -1 -31.5 -3t-41.5 -5t-34 -8q-59 -25 -120 -76q-46 -38 -89 -109q-32 -52 -20 -106q15 -65 61 -90q33 -21 78 -21z" />
    </font>
</defs>
</svg>
